&title=Party in the HOLLOWood
&artist=t+pazolite feat. ななひら
&first=-0.6
&des=t+ragic
&lv_5=13+
&des_5=t+ragic
&inote_5=
(178){4},,,,{1}4s8[4:5]/5z1[4:5],
,3-5-8[4:5],
,1V38[4:5]/7V58[4:5],
{2},,1h[4:1]/7h[4:1],
6h[4:1]/2h[4:1],
{8}E3,E4,E5,E6,E7,E8,E1,E2,
5/E3,{16}6,6,{8}4h[8:1],7,8h[8:1],5,8h[8:1],5,
7h[8:1],5-1[8:1],7h[8:1],5,8-6[8:1],2,8,3,
5,{16}4,4,{8}7h[8:1],5,8h[8:1],4,8h[8:1],4,
7-5[8:1],5-1[8:1],7,3,{2}2w6[8:1],
{8}4/8,{16}3,3,{8}5h[8:1],2,1h[8:1],4,1h[8:1],4,
2h[8:1],4-8[8:1],2h[8:1],4,1-3[8:1],7,1,6,
4,{16}5,5,{8}2h[8:1],4,1h[8:1],5,1h[8:1],5,
2-4[8:1],4-8[8:1],2,6,7-4[8:1],7,8,1,
{4}2h[4:1],{8}B6/E6,3,{4}3h[4:1],{8}B7/E7,4,
{4}4h[4:1],{8}E8/B8,5,5,6/4,{4}6/4,
7h[4:1],{8}E4/B3,6,{4}6h[4:1],{8}B2/E3,5,
{4}5h[4:1],{8}E2/B1,4,4,3/5,{4}3/5,
2,{8}4/3,5,{4}5h[8:1],{8}6/4,3,
{4}3h[8:1],{8}2/4,5-8[8:1],5,B4/E4,{4}B2/E3,
7,{8}5/6,4,{4}4h[8:1],{8}3/5,6,
{4}6h[8:1],{8}7/5,4-1[8:1],4,8,8,8,
{4}1/7h[8:1],1/7h[8:1],2/6h[8:1],6h[8:1]/2-6[8:1],
5h[8:1]/2V48[2:1],5h[8:1],6h[8:1],6h[8:1],
7/1h[8:1],7/1h[8:1],6/2h[8:1],2h[8:1]/6-4[8:1],
3h[8:1]/6q8[2:1],3h[8:1],4h[8:1],4h[8:1],
6h[8:1]/5-3[8:1],5/7h[8:1],8h[8:1]/2-5[8:1],2/7h[8:1],
4h[8:1]/6-8[8:1],6/3h[8:1],2h[8:1]/7-4[8:1],1h[8:1]/7qq8[4:3],
2h[8:1],2h[8:1],3h[8:1],3h[8:1],
2/1<6[4:1],6>3[4:1],3p7[4:1],2,
{2}1h[4:3],{4}8,7h[4:1],
{8}8-2[8:1],8,6-4[8:1],6,{2}3-7[8:1],
6h[4:3],{4}5,4h[4:1],
{8}7-5[8:1],7,3,3,4/2h[8:1],{16}5,3,6,4,7,5,
{2}8h[4:3],{4}5,4h[4:1],
{8}7-5[8:1],7,3-1[8:1],3,{2}4-8[8:1],
{8}2,2,8,8,3,3,7,7,
{16}4,6,4,6,4,6,4,6,{4}5w1[8:1],Cf/B7/B3,
{8}7b/3b,{16}6,5,{8}6,4,{4}5/4-8[8:1],4/3,
{8}2/7,{16}1,8,{8}1-5[8:1],7,{2}1/7-4[8:1]*-3[8:1],
{4}5/2-4-8[4:1],{8}6,6,{16}7-5[8:1],,,1,{8}7,2,
4,{16}3,5,{8}3,6/4,{4}7h[8:3]/5h[8:1],C,
{8}8b/2b,{16}3,4,{8}3,5,{4}4/5-1[8:1],{8}7/5,7,
6/2,{16}5,3,{8}5-1[8:1],4,{4}4/5<3[4:1],8/5,
4<7[8:1],2/4,1-5[8:1],{8}8-2-7-3-6-4b[8:5],8,
{16}3h[4:1],,,,,,,,,,,B5/B3,{4}E6/E3,
{8}7b/1b,{16}2,6,{8}2,4,{4}3/4-1[8:1],4/5,
{8}2/6,{16}7,8,{8}7-3[8:1],1,{2}7/1p5[8:1]*<6[8:1],
{4}3/4-8[8:1],{8}2-5[8:1],2,{4}7,{8}6,6,
7/5,{16}4,6,{8}4,3/5,{4}2h[8:3]/4h[8:1],C,
{16}7b/1b-5[8:1],,,8,{8}1,7,6/4-8[8:1],3,{4}4/2V41[4:1],
{16}1-5[8:1],,,8,,,{8}7,{2}6/4qq2[8:1]*<7[8:1],
{4}3/8-4[8:1],{8}2-5[8:1],2,{4}6-1[8:1],4,
{8}3h[4:1],8,,7,{4}2/7-3[8:1],1<6[8:1],
{1}4h[1:1]/1>4-6v3b[4:13],
,8x-2v7[4:5],
{8},,,,,,,,5/4,
,,3,{4}B5/E5,2,
{8}2,,,3,{2}E7/B6,
{8}4/5,,,6,{4}B4/E5,7,
{8}7,,,6,{4}E3/B3,{8}7,7,
8h[2:1],,,5,{4}E5/B4/E4,7,
{8}7h[8:3],,,5,{2}6/4,
{8}5/3h[2:1],,,6,{4}E7/B7/E8,2,
{8}2h[2:1],,,4,{4}E7/B6/E6,{8}2,2,
1h[2:1],,,4,{4}E5/B5/E6,2,
{8}2h[8:3],,,4,{2}3/5,
{8}4/6h[2:1],,,3,{4}E3/B2/E2,7<6>5>4>3>2[4:3],
{1}7h[4:3],
{4}1/8,1/8,1/8,1/8,
2/E1/D1,2/E8/D8,2/E7/D7,2/E6/D6,
3/4,3/4,3/4,3/4,
5/D4/E4,5/D3/E3,5/D2/E2,5/D1/E1,
6/4,4/6,4/6,4/6,
3/D8/E8,3/D7/E7,3/E6/D6,3/E5/D5,
{16}2,4,2,4,2,4,2,4,1,5,1,5,1,5,1,5,
8,6,8,6,8,6,8,6,{8}7w3b[8:1],7,{4}7bx/Cf/B1/B5,
{8}1b/5b,{16}2,4,{8}3-8[8:1],6,{2}3/7v4[8:1]*-2[8:1],
{8}5/3,{16}6,4,{8}7-3[8:1],5,{2}7/5-2[8:1]*-1[8:1],
{4}3/8p4[8:1],{8}2,2,6/1,{16}7,8,{8}7,5,
6/4,{16}3,5,{8}3,4/2,{4}5h[8:3]/1h[8:1],C,
{16}4b/6b,,,7,{8}5-2[8:1],8,{4}5/1v4[8:1],{8}8,7,
{16}3/6,,,2,{8}4-7[8:1],1,{4}4/8>6[4:1],2/8,
1-5[8:1],{8}7-4[8:1],7,{4}2-6[8:1],{8}5-3-6-2-7-1b[8:5],5,
{16}4h[2:1],,,,,,,,,,,B2/B8,{4}E8/E3,
{8}4b/6b,{16}3,5,{8}2-5[8:1],8,{2}2/8-4[8:1]*-6[8:1],
{8}3/5,{16}2,8,{8}1-5[8:1],6,{2}1/6p2[8:1]*>3[8:1],
{4}1/7v4[8:1],{8}2-6[8:1],2,{4}5-1[8:1],{8}4,3,
2/8,{16}7,5,{8}7,6/4,{4}3h[8:3]/7h[8:1],C,
{16}4b/2b,,,3,{8}5p1[8:1],4,5/6>3[8:1],7,{4}6/2,
{16}7/1,,,6,{8}2-6[8:1],5,{2}2/4v1[8:1]*<7[8:1],
{16}8/2,,,3,{8}1-6[8:1],4,{4}1/5-2[8:1],7/5,
{8}8h[4:1],1,,2,{4}7-4[8:1]/3>1[8:1],7pp8-5[4:3],
{16},,,,,,,,,,,,,,,,4,
6,4,6,3,7,3,7,{4}2-6[8:1],2/8,
{8}7b/5b,{16}6,4,{8}6,3,5-1[8:1],5,2-4[8:1],2,
8-6[8:1],8,5-1[8:1],5,7-4[8:1],7,8,8,
1/5,{16}2,4,{8}3,8,4-8[8:1],4,7-5[8:1],7,
1-3[8:1],1,4-8[8:1],4,{2}4w8[8:1],
{8}2/6,{16}3,5,{8}3,6,4-8[8:1],4,7-5[8:1],7,
1-3[8:1],1,4-8[8:1],4,2-5[8:1],2,1,1,
8/4,{16}7,5,{8}6,1,5-1[8:1],5,2-4[8:1],2,
{4}8h[4:1],{16}6,5,4,3,{8}1/2-6b[8:1],1,{4}2b/8b,
{8}7b/5b,{16}6,4,{8}6,2-4[8:1],5,2-6[8:1],{4}1,
{8}8-4[8:1],4-7[8:1],8,3-1[8:1],1-5[8:1],3,8,8,
7/4,{16}6,5,{8}6,4-2[8:1],7,4-8[8:1],{4}6,
{8}5-1[8:1],1-7-4[4:1],5,2,{2}3-8[8:1]*v6[8:1],
{8}7b/1b,{16}2,4,{8}3,8-6[8:1],5,8-4[8:1],{4}3,
{8}2-5[8:1],5-1[8:1],2,6-8[8:1],8-4[8:1],6,1,1,
2/5,{16}3,4,{8}3,7-5[8:1],4,7-3[8:1],{4}8,
{8}1-4[8:1],4-8[8:1],1,5,{2}7qq6[8:1]*>2[8:1],
{4}7bx/3bx,{16}2,8,2,8,3,7,3,7,4,6,4,6,
{8}5-1[8:1],8-4[8:1],5,8,{4}2bq7[4:1]*p5[4:1],B2,
E
