&title=きゅびびびびずむ
&artist=原口沙輔
&first=0.085
&des=Zirconium
&des_7=
&lv_7=14+?
&inote_7=(185){4}8?w4[0.6422##0.1622]/1?w5[0.6422##0.1622],,1b/8b,{8}4,{16}5,4,
,6,{8}3,{16}5,2,6,1,{4}7bh[4:15]/8bh[4:15],{8}E1,{32}D3,A3,D4,A4,
,,,,,,,,{4}B6,,E4,
,A1,{32},,,,,,,,A6,,,,,B7,B8,B1,
,,,,,,,,{16}B1,B3,{8}A4,{16}E5,E6,{8}E7,{16}E8,C,{8}E5,
,,{4}E2,7bh[4:3]/8bh[4:3],A4,
,B2,7bh[4:3]/8bh[4:3],B1,
,B6,7bh[4:1]/8bh[4:1],C,
7bh[4:1]/8bh[4:1],C,{8}6,5,4/6,3/5,
{2}2bq7[8:1]/4bp7[8:1],{8}6bx/4bx,3,6b/4b,3,
{16}6,5,{8}6,{16}6,5,{8}6,1b/3b,4,{16}6,5,{8}6,
{16}6,5,{8}6,3/5q7[4:1],5,{2}5xq4[16:3],
{16}6,5,{8}6,{16}6p4[4:1],5,{8}6,{4}7,{16}6,5,{8}6,
{16}6-4[12:1],5,{8}6,{4}6b,{8}6b/4b,3,6b/4b,3,
{16}6,5,{8}6,{16}6,5,{8}6,1b/3b,4,{16}6,5,{8}6,
{16}6,5,{8}6,3/5pp4[8:3],6/4,5,3qq4[8:3],3,3,
{16},,,,6pp5[8:3],5,{8}6,6b,4qq5[8:3],4,4b,
,B7,{4}B3,{8}5/6/6?>5[0##0.0357],6h[1:3]/5h[1:3],{4}3h[64:15],
{64}4h,,,,,,,,,,,,,,,,,3h[32:3],,,,,,,{8}4h,,,{4}3h[64:15],
{8}4h,3h[64:15],,4h,{64},,,,,,,,,,,,,,,,,3h[32:7],,,,,,,,,,,,,,,{4}4h,
{8}3h[64:7],4h/3?<3<3[16:13],,,{4}3?<3[16:7]*<3[16:7],
{2}7?-1-3b[16:3],{8}5/6/5?<6[0##0.0357],6h[1:3]/5h[1:3],{4}3h[64:15],
{64}4h,,,,,,,,,,,,,,,,,3h[32:3],,,,,,,{8}4h,,,{4}3h[64:15],
{8}4h,3h[64:15],,4h,,,{4}3h[64:15],
4h,{8}3h[64:7],4h/2?<7>2[2:1],,7?>2[4:1]*>2[4:1],,,,7,
4h[4:1]/3bxh[4:1],6h,6h[4:1],4h[4:1],,5h[4:1],
,4h[32:7]/3bxh[32:7],,6h[8:3],,4h[4:1],,5h[4:1],
,4h[16:5]/3bxh[8:3],{32},,,,,,,4h[32:1],{8}6h[4:1],4h[4:1],,5h[4:1],
,4h[4:1]/3bxh[4:1],,6h[8:3],,4h[4:1],,5h[8:1],
{16}6h[64:1]/3bxh[8:1],4h[64:1],5h[64:1],6h[64:1],{8}4h[64:1],6h,6h[4:1]/5h[4:1],4h[4:1],,5h[4:1],
,4h[32:7]/3bxh[32:7],,6h[8:3],,4h[4:1],,5h[4:1],
,4h[32:11]/3bxh[32:11],,,6h[4:1],4h[4:1],,5h[4:1],
,4h[32:7]/3xbh[32:7],,6h[8:3],,4h[4:1],,5h,
{16}6h[64:1]/3xbh[8:1],4h[64:1],5h[64:1],6h[64:1],{8}4h[64:1],5,{4}3h[8:1],6h[8:1]/2h[8:1],
6h/3h[8:1],{8}6h[16:1]/4h[8:1],6h,{4}3h[8:1],6h[8:1]/2h[8:1],
{8}6h/3h[8:1],6h[8:1],4h[8:1],7?v6z2v3s7[8:15],{1},{4},,{16},4?-7b[0.4054##0.0811],
,,,,,,{4}8h[8:1],3h[8:1]/7h[8:1],
3h/8h[8:1],{8}3h[16:1]/1h[8:1],3h,{4}8h[8:1],3h[8:1]/7h[8:1],
{8}3h/8h[8:1],3h[8:1],1h[8:1],3?v2z6v7s3b[16:29],{1},{4},,{16},2$,
2$,2$,2$,2$,2$/8?-5-2[4:3],2$,{2}1h[16:7],
{4}8h[16:3],7$/3?-8-5-2-7[1:1],{2}1h[2:1],
{4},1$/7?-4-1[4:3],{2}3h[32:11],
{16}2$/1?v6-3-8-5-2[32:37],,,4h[4:1],{32},,,,,,,,,4h[16:3],,,,,,,{4}5h[32:7],
{2}3h[4:1],{4}4/7,{8}3h[8:3],6h[4:1],
,,1,5,{4}3,{8}7h[4:1],4h[8:1],
,6,5,4,{4}1<5<7[32:19],{8}1/2,3,
,4h[8:1],,,{4}8>4>1[2:1],{32}8,,,,,5,6,7,
{8}8,8,{4}8,{8}4/8-6[0.4865##0.1622],,,8,
{4}8x-5[8:1],{8}8,8x-6[8:1],,8,{4}8x/8?-4[8:1]/4?-8[8:1],
8b/4b,1b/5b,{8}1-3[0.4865##0.1622],,,1h[64:1],
{4}1x-4[8:1],{8}1h[64:1],1x-3[8:1],,1h[64:1],{4}1x/1?-5[8:1]/5?-1[8:1],
1b/5b,4b/8b<4<8[1:1],4h[8:1],{8}4,4,
3-1[8:1],3,{4}3,{8}2$x/1x>5>1[1:1],1x/2x,1/2,6/7,
6/7,6/7,{4}6h[8:3]/7h[8:3],{8},,5/8,5/8,
1/4,4/1,{16}2/5,3x,6x,4x,{8}5x,6x/3x,2x/7x,2x/7x/3/6,
2h[64:1]/7h[64:1],8b,{32}B1,B2,B3,B4,B5,B6,B7,B8,{4}1x>2-4<5[8:3],{8}6,5q1[8:3],
,8,{4}1>2-4<5[8:3],{8}6,5q1[4:1],,8,
1-3<4[0.1622##0.3211],6,4-1[0.1622##0.1622],8,8,2$/2?-6[0##2.7568],,8,
{4}2$/2?-6[0##2.2162]*-6[0##2.2162],{8}8,2$/2?-6[0##1.5946],,8,{4}2$/2?-6[0##0.973]*-6[0##0.973],
{8}8/2?-6b[8:1],2$/2?-6[0##0.3649],{4}2bxh,{8}4b/3bqq8[1.1319##1.2973],7,6,5-7[1.7297##0.2097]*-7[1.7297##0.2097],
,5,4,3bqq8[0##1.2973]*qq8[0##1.2973],,6,5,4<5-7[4:1],
,4b,,,{4}1bh[8:7]/1?-5[1.1319##0.8076],8bh[8:5]/8?-4[0.8076##0.8076],
2bh[8:3]/2?v5[0.4865##0.8076],7bh[8:1]/7?v4[0.1622##0.8076],{8},,,,,C,
{4}3b/4b/5b/6b,8x-6-4[8:3],{8}2,4p8[8:3],
,1,{4}8p4[8:3],{8}3,4<7[4:1],,8,
7v4[0.1622##0.3211],3,4-6[0.1622##0.1622],8,2,8$/8?-4[0##2.7568],,2,
{4}8$/8?-4[0##2.2162]*-4[0##2.2162],{8}2,8$/8?-4[0##1.5946],,2,{4}8$/8?-4[0##0.973]*-4[0##0.973],
{8}2/8?-4b[8:1],8$/8?-4[0##0.3649],{4}8bxh,{8}2b/1bqq6[1.1319##1.1319],5,4,3-5[1.6757##0.1049]*-5[1.6757##0.1049],
,3,2,1bqq6[0##1.1319]*qq6[0##1.1319],,4,3,2>3-5[8:1],
,2b,,7<3[4:1],,3>7[4:1],,7V53[16:3],
,3>1b[0.2368##0.1622],,,8x/2xh[8:7],7,6,5,
{32}4x,D4,A3,D3,A2,D2,A1,D1,,,,,,,,,{8}3b/5b,6,3b/5b,6,
{16}3,4,{8}3,{16}3,4,{8}3,8b/6b,5,{16}3,4,{8}3,
{16}3,4,{8}3,6/4p1[4:1],3,{4}5/4xq7[4:1],4x,
{16}3,4,{8}3,{16}3q5[4:1],4,{8}3,{4}3,{16}3,4,{8}3,
{16}3-5[8:1],4,{8}3,{4}3b,{8}3b/5b,6,3b/5b,6,
{16}3,4,{8}3,{16}3,4,{8}3,8b/6b,5,{16}3,4,{8}3,
{16}3,4,{8}3,6/4qq5[8:3],3/5,4,6pp5[8:3],6,6,
{16},,,,3qq4[8:3],4,{8}3,3,5$/7?p6b[2:1],5,5,
,,,,{2}4h[8:7]/Ch[1:1]/2?p2b[1.2973##0.8919]/6?p6b[1.2973##0.8919],
,4bxh,
{16},,,,5xh,5xh[32:9],,,{8}7?q7[1.2973##0.973]/3?q3[1.2973##0.973],5xh[32:3]/Ch[8:7],{4}5xh[32:11],
{8},5xh[16:5],{32},,,,,,,,5bxh,,,,,,,,,,,,,B1,,,,,,,,,,,{4}A7,
{32}5xh[8:7]/7?p7[4.0119##1.0541],3?p3[3.973##1.0541],{4},,,{16},,,{2}5bxh,
{16},,,4h/5h/Ch[32:45]/2?q2b[2.2249##0.6422]/6?q6b[2.2249##0.6422],{4}4xh[16:5]/5xh[16:5],{32},,,,4xh/5xh,,,4xh[32:15]/5xh[32:15],,,,,,,,,,,,,,,,4xh[16:4]/5xh[16:4],
,,,,,,,,,{16}5bx/4bx,,,,,,,,,,,,,,,{32},{4}3xh[2:1]/6xh[2:1],
4xh[8:5],
{32},,,6?q6-2q2[0##2.0627],,,,,,,,,,,{16}4xh,{2}4bxh,
{16},,,,4xh,4xh[32:9],,,,,{8}4xh,{4}4xh[32:11],
{8},4xh[16:5],,,4bxh,,,A7/7?q3q3s7[0##2.7568],
,,{4}E3,{2}5xh[32:15],
{8}5xh[32:15],,,B2,{2}5bxh,
{4},4xh/5xh,{16},B7f/B6f/B2f/B3f/B8f/B1f/B5f/B4f/Cfh[8:15],{1},{4},,,{8},{2}3bh[8:23]/1bh[8:23]/8bh[8:23]/6bh[8:23],
{1},,{4},,{16}3,
6,4,5,3,6,4,5,
3/6,{32}A4,D5,A5,D6,E7,E8,{24}E1,E2,B3,B4,B5,C,{16}7xh,5xh,6xh,4xh,7h,5h,6h,4h[16:17],
,5h,7h,5h,6h,7h[16:13],{32},,6x,5x,{16}6x,5h,6h,5h,6h,5h,6h[8:3],5h[16:7],
,,,,,,,,2h,4h,3h,5h,2h,4h,3h,5h[16:17],
,4h,2h,4h,3h,2h[16:13],{32},,3x,4x,{16}3x,4h,3h,4h,3h,4h,{8}3h[8:3],
{32},,,,,,,,E3,E4,E5,E6,E7,E8,E1,E2,{8}2xh[2:1],7h[2:1],8h[2:1],1h[2:1],
,,,,{4}7h[2:1]/8h[2:1],1h[4:1]/2h[4:1],
,4bh/5bh/3bh/6bh,{8}3h[2:1],6h[2:1],5h[2:1],4h[2:1],
,,,,{4}6h[2:1]/5h[2:1],3h[2:1]/4h[2:1],
{32},,,,,,,,5bxh[64:1],6bxh[64:1],7bxh[64:1],8bxh[64:1],1bxh[64:1],2bxh[64:1],3bxh[64:1],4bxh[64:1],{16}5x/4?<5>8[0##1.2973],,,6x,5x,,,5x,
{8}6x/5x,6x/5x,6x/5x,6x/5x,{16}6x<7<3[0##1.1319],,,1x,{8}2x,1x/2x,
1x/2x,1x/2x,1x/2x,1x/2x,{16}1x<8>4[0##1.1319],,,6x,{8}5x,{16}6x,5x,
{8}6x/5x,6x/5x,{16}6x/5x,6x/5x,,,{8}3x/7x<6<2[0##1.1319],3x/4x,3x/4x,3x/4x,
{16}3x/4x,3x/4x,3x/4x,3x/4x,{8}4xh[64:1]/3xh[64:1],4xh[64:1]/3xh[64:1],{16}2x<1>6[0##1.2973],,,7x,{8}8x,{16}7x,8x,
7x,8,7x,8x,7,8x,7x,8,7x<6<2[0##1.1319],,,5x,{8}4x,5x,
{16}5xh[64:1]/4xh[64:1],5xh[64:1]/4xh[64:1],5xh[64:1]/4xh[64:1],5xh[64:1]/4xh[64:1],4x/5x,4x/5x,4x/5x,4x/5x,{8}3x,{16}6,5,{8}6,6,
{16}3,3,3,3,{8}8/7,{16}6,4,5,5,5,5,5,5,5,5,
{8}5b/5?-1[0##0.5676],{32},,,,,,,,5$bx,,,3bxh[32:1]/4bxh[32:1],,,,3bxh[32:1]/4bxh[32:1],,,,3bxh[32:1]/4bxh[32:1],,6bxh[32:1]/5bxh[32:1],,3bxh[32:1]/4bxh[32:1],,6bxh[32:1]/5bxh[32:1],,3bxh[32:1]/4bxh[32:1],
,,,3bxh[32:1]/4bxh[32:1],,,,3bxh[32:1]/4bxh[32:1],6?-2[8:1],6bxh[32:1]/5bxh[32:1],,3bxh[32:1]/4bxh[32:1],,6bxh[32:1]/5bxh[32:1],,3bxh[32:1]/4bxh[32:1],{4}5bx-1[8:1],4bx-8[8:1],
3$bx/7?-3b[8:1],{32}7bx,,,,,,,2bxh[32:1]/1bxh[32:1],,3bxh[32:1]/4bxh[32:1],,2bxh[32:1]/1bxh[32:1],,,,2bxh[32:1]/1bxh[32:1],,3bxh[32:1]/4bxh[32:1],,2bxh[32:1]/1bxh[32:1],,,,2bxh[32:1]/1bxh[32:1],
,,,2bxh[32:1]/1bxh[32:1],,3bxh[32:1]/4bxh[32:1],,1bxh[32:1]/2bxh[32:1],5?-1[32:3],,,2bxh[32:1]/1bxh[32:1],,,,,{4}6bx-2[8:1],7$bx/3?-7b[8:1],
6bx-2[8:1],{32}6bx,,,,,,,1bxh[32:1]/8bxh[32:1],,,,1bxh[32:1]/8bxh[32:1],,,,1bxh[32:1]/8bxh[32:1],,,8bx/1bx,1bxh[32:1]/8bxh[32:1],,1bx/8bx,,1bxh[32:1]/8bxh[32:1],
,,,1bxh[32:1]/8bxh[32:1],,,,1bxh[32:1]/8bxh[32:1],8?p4[8:1],1bxh[32:1]/8bxh[32:1],,1bxh[32:1]/8bxh[32:1],,1bxh[32:1]/8bxh[32:1],,,{4}7bxp3[8:1],6bxp2[8:1],
5bxq1b[8:1],{32}5$bx,,,,,,,4bxh[32:1]/3bxh[32:1],,,3bx/4bx,4bxh[32:1]/3bxh[32:1],,,,4bxh[32:1]/3bxh[32:1],,,3bx/4bx,4bxh[32:1]/3bxh[32:1],,,,,3bx/4bx,
,,4bxh[32:1]/3bxh[32:1],,,3bx/4bx,4bxh[32:1]/3bxh[32:1],{8}2?-6[8:1],3bx/4bx,{4}1bx-5[8:1],8bx-4[8:1],
7$bx/3?-7b[8:1],3$bx,6bxpp5b[2:1],4bxqq5b[0##0.6422],
{8},,,3bh[4:3],{16}5h,4h,5h,4h,5h,4h,{8}6bh[4:1],
{4}4h[8:1]/5h[8:1],{32}A5/A4,D6/D4,A6/A3,D7/D3,A7/A2,D8/D2,A8/A1,D1,{4}1V35[8:3],{8}6,5q1[8:3],
,8,{4}1>5[8:3],{8}6,5V31[8:3],,8,
1>5[4:1],6,,8,1,7$/7?-3[0##2.7568],,1,
{4}7$/7?-3[0##2.2162]*-3[0##2.2162],{8}1,7$/7?-3b[0##1.5946],,1,{4}7$/7?-3[0##0.973]*-3[0##0.973],
{8}1/7?-3b[8:1],7$/7?-3[0##0.3649],{4}7bxh,{8}1/2pp5[1.1319##1.2973],6,7,8-6[1.7297##0.2097]*-6[1.7297##0.2097],
,8,1,2bpp5[0##1.2973]*pp5[0##1.2973],,7,8,1<8-6[4:1],
,1b,,,{4}4bh[8:7]/4?-8[1.1319##0.8076]*-8[4:5],5bh[8:5]/5?-1[0.8076##0.8076]*-1[1:1],
3bh[8:3]/3?v8[0.4865##0.8076]*v8[0.4865##0.8076],6bh[8:1]/6?v1[0.1622##0.8076]*v1[0.1622##0.8076],{8},,,,,C,
{4}2b/1b/8b/7b,7V53[8:3],{8}2,3p7[8:3],
,8,{4}7<3[8:3],{8}2,3V57[8:3],,8,
7<3[4:1],2,,1,2,1$/1?-5[0##2.7568],,3,
{4}1$/1?-5[0##2.2162]*-5[0##2.2162],{8}4,1$/1?-5b[0##1.5946],,5,{4}1$/1?-5[0##0.973]*-5[0##0.973],
{8}6/1?-5b[8:1],1$/1?-5[0##0.3649],{4}1bxh,2b/1bqq6[1.1319##0.6422],{8}4,3-5[1.5795##0.1719]*-5[1.5795##0.1719],
,3,2,1bqq6[0##0.6422]*qq6[0##0.6422],,5,4,3-5-3-1-7[0.2822##0.6876],
{32},,,3b,,,,,{8}7,7<3[4:1],,3>7[4:1],7,7V53[16:3],
,3>1b[0.2368##0.1622],,,2xh[8:7],8,7,6,
{32}5x,4x,3x,2x,1x,8x,7x,6x,{4}5x,{8}7bx/3bx/6bx/4bx,2,7bx/3bx/6bx/4bx,2,
{16}6,5,{8}6,{16}6,5,{8}6,3b/4bx/8bx/7bx,5,{16}6,5,{8}6,
{16}6,5,{8}6,3/5q8[4:1],6/4,{4}3/5xp2[4:1],5x,
{16}6,5,{8}6,{16}6p4[4:1],5,{8}6,{4}6h[8:1],{16}6,5,{8}6,
{16}6-4[8:1],5,{8}6,{4}6bx,{32}7b/4b/6bx/3bx,,,2,,,,,{8}7b/4b/6bx/3bx,2,
{16}6,5,{8}6,{16}6,5,{8}6,1b/3b/4bx/8bx,5,{16}6,5,{8}6,
{16}6,5,{8}6,3/5pp4[8:3],6/4,5,3qq4[8:3],3,3,
{16},,,,6pp5[8:3],5,{8}6,6,4qq5[8:7],4,6?pp5b[0.36##0.7654]/7?-3b[0.36##0.4411],
,,,,,,{4}E8/B8/E1/B1/E2/D1/Cf/E5,
E
