&title=Everything B.K.
&artist=nora2r
&first=0.63
&des_5=Everything H.S.
&lv_5=14
&des=Everything H.S.
&inote_5=(180)
{4}5h[8:1]/6h[8:1],5h[8:1]/6h[8:1],3/4,3/4,5h[8:1]/6h[8:1],3/4,3-1[8:1]/4-8[8:1],,
{4}5h[8:1]/7h[8:1],5h[8:1]/7h[8:1],2/4,2/4,5h[8:1]/7h[8:1],2/4,2-8[8:1]*-4[8:1]/4,,
{4}7-5[8:1],7/8,2-4[8:1],1/2,7-4[8:1],7/2-5[8:1],1-4[8:1]*-6[8:1]/2,,
{4}7-3[8:1],1/7,2-6[8:1],2/8,
{8}7b-1[8:1],1V75[4:1],7V53[4:1],,2-6b[8:1],,2,,
{8}4p6[4:1],,6q4[4:1],,4p6[4:1],,6q4[4:1],,4p6[4:1],5,6q4[4:1],,5-1[8:1],,5,,
{8}2-4[8:1],,1-5[8:1]/2,,1/2-4[8:1],,1-5[8:1]/2,,1/2-6[8:1],2,1/2,,7b-3b[8:1],,,,
{8}1v4[8:1]/5,,1/7,,8v5[8:1]/3,,2/8,,1v4[8:1]/6,7,1/8,,3-6[8:1],6-3[8:1],,,
{16}8<5[8:1],,,,3/8,,1h[8:1],,,1h[8:1]/4h[8:1],,,3h[16:1]/6h[16:1],,5/8,,
{8}7,,7,,7v6[8:1]/5p8[8:1],4,7b/5b,,
{16}1-3[8:1],,,,1-5[8:1]/5,,5,,1/6>3[8:1],,,8,6,,7,,2-6[8:1],,1,,2-4[8:1],,4V28[4:1],,2-6[8:1],,,,,,,,
{16}8x-6[8:1],,,,8-4[8:1]/4,,4,,8/3<6[8:1],,,1,3,,2,,7-4[8:1],,8,,7-3[8:1],,1,,2/7bv1[8:1]*v5[8:1],,,,,,,,
{16}2-4[8:1]/6,,,,2/7,,8,,2-6[8:1]/1,,,8,2,,7h[8:1],,5-8[8:1],,4,,3-1[8:1]/5,,1V35[4:1],,3-7[8:1],,,,,,,,
{16}6,5,6,3,4,3,8,5,6,1,4,3,7,2,5,4,7b-1[8:1]/3b,,1V75[4:1],,7V53[4:1],,,,2-6b[8:1],,,,2,,,,
{8}1b>3[8:1],5,4p8[8:1],,7v5[8:1],6,5,,8-2[8:1],7,5-3[8:1],6,7-3[8:1]*-4[8:1],6,7,,
{8}1<6[8:1],2,4-8[8:1],3,2v5[8:1],1-6[8:1],2,1,3V52-8[4:1],6x,7x-3[8:1],,7bv1[8:1]*v5[8:1],,,,
{8}8b<6[8:1],4,5q1[8:1],,2v4[8:1],3,4,,1-7[8:1],2,4-6[8:1],3,2-6[8:1]*-5[8:1],3,2,,
{8}8>3[8:1],7,5-1[8:1],6,7v4[8:1],8-3[8:1],7,8,5,7,5/3,7,8-4b[8:1]*z4[8:1],2/6,
{32}8b,B8,Cf,B4,,,,,
{16}2b/7b,,1,8,2b-6b[16:1],,,,2b/4b<7b[16:1],,,4b>1b[16:1],,,4b,,
{16}8b-4b[8:1],,,,8b-3b[16:1]/1,,,,8b/5<8b[16:1],,,5b>2b[16:1],,,5b,,
{16}1bw5b[8:1],,,,1b,,,,8b-2b[8:1],,,,8b-6b[8:1]/4,,4,,
{8}4/8b,4b,4b-8[8:1],4,4v6[8:1]*v2[8:1],,,,
{16}1b/8b,,8,1,7b-3b[8:1],,,,7b-5b[8:1]/4b,,,2b,7,1,1,,
{16}8b-3b[8:1],,,,7/8b-5b[16:1],,,,8b/4>1b[16:1],,,4b<7b[16:1],,,4b,,
{16}1,2,3,4,
{16}8,1,2,3,
{24}7,8,1,2,3,4,
{32}5h,6h,7h,8h,1h,2h,3h,4h,
{8}7x-1[8:1],1xV75[4:1],7xV53[4:1],,2-6b[8:1],,2,,
{4}1bs5[2:1]*z5[2:1],,,,1w5[2:1],,,,3-6[2:1]/6>3[2:1],,,,2V46[4:1],6V82[4:1],,,
{16}5h[4:1]/3h[8:1],,,,2,,3,4,3,4,3h[8:1],,8,,7,,
{16}4h[4:1]/6h[8:1],,,,7,,6,5,6,5,6h[8:1],,1h[8:1],,E7/B7,,
{16}2/4h[8:1],,2,,3/5,,6,5,7,5,6h[8:1],,2,,1h[8:7],,
{4}E6,B5,B4,E4f,
{8}8b-5-8[8:13],,4,,4,,4,,3,,3,,2,,2,,
{8}1/3,5/6,3/4,6/8,
{16}7,2,8,1,6,3,5,4,
{8}7-1[8:1],1V75[4:1],7V53[4:1],,2-6b[8:1],,2,,
{16}8h[1:1]/4h[8:1],,,,4h[8:1],,,,4h[8:1],,,4h,,4h[16:1],,,
{4}4V68-2[8:3],,6x,8x-4b[8:1],
{32}8b<4[4:1]/A4f,D4,A3,D3,A2,D2,A1,D1,A8,,,,,,,,7-3b[8:1],,,,,,,,A7hf[1:0]/3x,,,,,,,,A1/5<1[4:1],D2,A2,D3,A3,D4,A4,D5,A5/7,,,,,,,,6x-1[8:1]*-3[8:1],,,,,,,,A6hf[1:0],,,,,,,,
{32}A4f/8<4[4:1],D4,A3/7<3[4:1],D3,A2/6>2[4:1],D2,A1/5,D1,8x-4b[8:1],,,,,,,,8x,,,,,,,,1/5V74[4:1],,,,,,,,
{8}4V61[4:1],3,2-6[8:1],,A2hf[1:0],,1x-5b[8:1],,
{32}1b>5[4:1]/A5f,D6,A6,D7,A7,D8,A8,D1,A1,,,,4x,,,,2x-6b[8:1],,,,,,,,A2hf[1:0]/6x,,,,8x,,,,A8/4x>8[4:1],D8,A7,D7,A6/2x,D6,A5,D5,A4,,,,4x,,,,3x-8[8:1]*-6[8:1],,,,,,,,A3hf[1:0],,,,,,,,
{32}A5f/1>5[4:1],D6,A6/2>6[4:1],D7,A7/3<7[4:1],D8,A8/4,D1,1x-5b[8:1],,,,,,,,1x,,,,,,,,8/4V25-1-6-8[4:3],,,,8/4,,,,,,,,,,,,,,,,,,,,,,,,,,,,,,,,,,,,
{16}5/7bh[8:1],,,4b/6h[8:1],,,3/5b,,4b/6h[8:1],,,3/5bh[8:1],,,2b/4,,3b/5h[8:1],,,2/4bh[8:1],,,1b/3,,
{24}1-5[8:1]/3b,4,5,6,7,8,1,,,,,,
{16}4/2bh[8:1],,,5b/3h[8:1],,,6/4b,,5b/3,,6/4b,,6,5,7,,6b/4h[8:1],,,7/5bh[8:1],,,8b/6,,
{24}8-4b[8:1]/6b,5,4,3,2,1,8,,,,,,
{8}8b-4[8:1],2,4-8[8:1],3,8-4[8:1],1,2,,1b-5[8:1],7,5-1[8:1],6,1-5[8:1],8,7,,
{16}4b/8b,,4/8,,3/7,,3/7,,6b,4,5,2,4,3,7,2,
{8}7-1[8:1],1V75[4:1],7V53[4:1],,2-6b[8:1],,2b/Cf,,
{16}1b/8b,,2,4,3,4,2,,1/8,,7,5,6,5,7<4[8:1],,
{24}3/8,,,4/7,3,2,1-6[8:1]*-4[8:1],,,8,,,1,,,,,,
{16}2,5,1,6,
{16}8>3[8:1],,6,6,8,4,4,,5-1[8:1],,1,1,5,3,3>8[8:1],,
{24}4,,,3/7,6,5,4,,,1/4,2/5,3/6,4-1[8:1]/7v5[8:1],,,,,,4/7,,,,,,
{16}8x/1x,,7,5,6,5,7,,8/1,,2,4,3,4,2>5[8:1],,
{24}6/1,,,5/2,6,7,8-3[8:1]*-5[8:1],,,1,,,8,,,,,,
{16}7,4,8,3,
{16}1<6[8:1],,3,3,1,5,5,,4-8[8:1],,8,8,4-7[8:1],6,6,,
{4}A2f/E3h[4:1]/B2h[2:1]/E2h[4:3],8xz4b[8:3],,,
{16}1x<6[8:1]/5,,5,5,1,,4-7[8:1],,8h[8:1],,4,,1,2,3,4,
{24}5/8,,,5/8,4/7,3/6,2-7[8:1]*-5[8:1]/5,,,1,,,2,,,,,,
{16}6,4,8,3,
{16}1<6[8:1],,3,3,1,5,5,,4-8[8:1],,8,8,4,6,6<1[8:1],,
{24}5,,,6/2,3,4,5,,,8/5,7/4,6/3,5-8[8:1]/2v4[8:1],,,,,,5/2,,,,,,
{16}8x>3[8:1]/4,,4,4,8,,5-2[8:1],,1h[8:1],,5,,8,7,6,5,
{24}4/1,,,4/1,5/2,6/3,7-2[8:1]*-4[8:1]/4,,,8,,,7,,,,,,
{16}3,5,1,6,
{16}2b,1,2,1,5,6,5,7,4,8,3,3,
{24}1b,2,3,4,5,6,
{8}7-1[8:1],1V75[4:1],7V53[4:1],,2-6b[8:1],,2,,
{4}4bh[8:1]/8bh[8:1],
E
&inote_7=(180)
{8}1,8,1,8,1,1,8,8,1,8,2,7,1/8,,1/8,,
{8}4,5,4,5,3,4,5,6,2/7,,2/6,3/7,4/8,1/5,,,
{8}1/4,,2/3,,7/6,6/5,5/4,4/3,8/5,,6/7,7/8,8/1,1/2,,,
{8}1/5,,3/7,,8/4,2/6,3/7,1/5,2-6[8:1],6-2[8:1],2>5[8:1],6<1[8:1],,,2b,,
{16}1,,3,4,,,6,5,,,1,3,,,8,6,,,4,7,,,5,2,,,1,7,,,6,4,,,2,6,,,8,5,,,1,4,,,5,4,,,1/8,1/8,,,3/6,,7-3[8:1],,,,4-1[8:1],,,,
{8}1-4[8:1],,4-1[8:1],,1-4[8:1],,4-1[8:1],,1-4[8:1],,7-3[8:1],,3-7[8:1],,1-5[8:1],,
{8}5-1[8:1],,1-5[8:1],,5-1[8:1],,,,3-6[8:1]/8-5[8:1],,,,2-5[8:1]/1-5[8:1],,,,
{16}3,7,,1,,1,,1,5,,3,,3,,3,,3,7,,5,,5,,5,,5,,5,1,,7,,
{16}6,2,,8,,8,,8,,8,,8,4,,2,,2,6,,4,,4,,4,7b,,,,8p4[8:1]/4p8[8:1],,,,
{4}8>3[8:1]/4<7[8:1],4-1[8:1]/8-5[8:1],8-3[8:1]/4-7[8:1],4p8[8:1]/8p4[8:1],8>3[8:1]/4<7[8:1],
{8},,4/8,3/7,2/6,,
{16}8,4,8,4,5,1,5,1,6,2,6,2,3/7,2/6,1/5,4/8,
{8}7-3[8:1],3-7[8:1],7<4[8:1],3>8[8:1],,,7b,,
{16}1,1,2,3,3,,8,8,7,6,6,,1,1,8,8,1,8,1,8,1,,5,4,5,4,5,,2,1,8,7,
{16}2,2,3,4,4,,7,7,6,5,5,,4,4,5,5,
{32}1,2,3,4,5,6,7,8,7,6,5,4,3,,,,2b-6[8:1],,,,,,,,,,,,,,,,
{16}2,1,2,1,8,7,8,7,1,8,2,7,4,5,3,6,3,4,3,4,5,6,5,6,2,1,8,7,8,1,2,,
{16}7,6,7,6,6/7,,2,3,2,3,2/3,,1/8,1/7,1b/6b,,8,7,3,4,3,,1,2,6,5,6,,3b/7b,,,,
{8}3/1,3,4/6,4,3/1,3,4/6,4,3/1,3,4/6,4,4/6h[4:1],4,3,3,
{8}6/8,6,5/3,5,6/8,6,5/3,5,6/8,6,6/8,6,3v8[8:1]/5v8[8:1],,3/5,,
{8}8-4[8:1],2,4-8[8:1],3,8-4[8:1],2,4-8[8:1],1,8-4[8:1],2,4,,4q1[8:1]/2v3[8:1],,,,
{16}3-7[4:1],,,,3>8[8:1],,,,8<5[8:1],,5>2[8:1],,,,,,
{8}7-3[8:1],3-7[8:1],7<4[8:1],3>8[8:1],,,7b,,
{16}6-4[16:1],1-5[16:1],,,,,,,2z6[16:1],7s3[16:1],,,,,,,1v6[16:1],,1v4[16:1],,1-5[16:1],,1s5[16:1],,,,,,,,,,
{16}1-6[16:1],8-3[16:1],,,,,,,5-2[16:1],4-7[16:1],,,,,,,2v1[16:1],,6q3[16:1],,2-6[16:1],,6p4[16:1],,,,,,,,,,
{16}2,1,2,1,2,,2,3,2,3,2,,2,1,8,,7,6,7,6,7,,7,8,7,8,7,,7,6,5,,
{16}4,2,4,2,4,,4,6,4,6,4,,4,2,8,,
{16}7,5,,6,4,,5,3,,4,2,,
{32}2,3,4,5,6,7,8,1b,
{4}5q1[8:1],1q5[8:1],5q1[8:1],1q5[8:1],5<1[8:1],1>5[8:1],5-1[8:1],,
{8}1v6[8:1],1v4[8:1],1,1,8v5[8:1],8v3[8:1],8,8,
{8}7-3[8:1],3-7[8:1],7<4[8:1],3>8[8:1],,,7b,,
{16}5,,4,5,,,4,5,,,4,5,,,4,5,
{8}2-6[8:1],6-2[8:1],2>5[8:1],6<1[8:1],,,2b,,
{8}8<5[4:1],8,5s1[4:1],5,1>4[4:1],1,4z8[4:1],4,8<5[4:1],8,5-2[4:1],5,2p7[4:1],,,,
{8}1>4[4:1],1,4z8[4:1],4,8<5[4:1],8,5s1[4:1],5,1>4[4:1],1,4-7[4:1],4,7q2[4:1],,,,
{16}8,7,6,5,3,4,3,4,2,4,2,4,6,4,6,4,1,8,4,5,1,4,8,5-1[8:1],1,5,4,8,,,,,
{16}8,7,6,5,3,4,3,4,2,4,2,4,6,4,6,4,1,1/8,1/8,1/8,1/8,1/8,1/8,1/8,1/8,1/8,2/7,3/6,4b/5b,,,,
{16}1,,5q2[8:1],4,,,,,4,,8p3[8:1],1,,,,,2,,7,6,,,1,,5<2[8:1],,4p5[8:1],,,,,,
{16}4v5[8:1],,2<7[8:1],2,,,,,2,,2v8[16:1]/8<4[16:1],,,,,,
{12}2/6,,,2/6,3/7,4/8,1p4[8:1]/2v3[8:1],,,,,,
{4}5-2[8:1]/8,5/8-5[8:1],8/2-7[8:1],2/5v4[8:1],5/7>2[8:1],7,1-5[8:1]/2-5[8:1],,
{16}8,4,8,4,5,1,5,1,6,2,6,2,3/7,2/6,1/5,4/8,
{8}7-3[8:1],3-7[8:1],7<4[8:1],3>8[8:1],,,7b,,
{16}3bp7[16:1]/7bp3[16:1],,,3/7,,,8/4,1/5,2q6[16:1]/6q2[16:1],,,2/6,,,1/5,4/8,3/7,2,1,8,1/5,2/6,3/7,4/8,1v4[8:1],,8v5[16:1],,1,,8,,
{16}6q2[16:1]/2q6[16:1],,,6/2,,,1/5,8/4,7p3[16:1]/3p7[16:1],,,7/3,,,8/4,5/1,6/2,7,8,1,8/4,7/3,6/2,5/1,8v5[8:1],,1v4[16:1],,8,,1,,
{16}2<7[16:1]/6q3[16:1],,,2/6,,,1/8,2/7,3-7[16:1]/6,,,3/6-2[8:1],,,6,,
{16}4-8[16:1],,,1,7,1,5,,5-1[16:1],,,,2,8,2,,
{16}7>2[16:1]/3p6[16:1],,,7/3,,,8/1,7/2,6-2[16:1]/3,,,6/3-7[8:1],,,3,,
{16}5-1[16:1],,,8,2,8,4,,4-8[16:1],,,,7,1,7,,
{16}1,2,3,4,5/1,4/8,3/7,2/6,5,6,7,8,1/5,4/8,3/7,2/6,1-6[16:1]/5-2[16:1],,,1/5,,,4/8,,1/5,2/6,3/7,,4h[8:1]/8h[8:1],,,,
{16}6h[8:5],,,7,7,,8,,,1,1h[8:3],,2,,3,,3h[4:1],,4,4,,,6,,
{32}8,7,6,5,4,3,2,1,2,3,4,5,6,7,,,
{16}8,7,6,5,4/8,5/1,6/2,7/3,4,3,2,1,8/4,5/1,6/2,7/3,8-3[16:1]/4-7[16:1],,,8/4,,,5/1,,8/4,7/3,6/2,,5h[8:1]/1h[8:1],,,,
{16}1,5,3,7,2,6,4,8,1,5,3,7,2/6,3/7,4/8,1/5,
{8}2-6[8:1],6-2[8:1],2>5[8:1],6<1[8:1],,,2b,,
{64}1b/8b,2b/7b,3b/6b,4b/5b,
E
