&title=カリスマ煉獄天神
&artist=森羅万象
&first=-0.03
&des=夜梨
&lv_2=3
&lv_3=8
&lv_4=10+
&lv_5=13
&lv_6=13
&inote_1=
&inote_2=(137)
{16},,{32},{16},,,,,,,,,,,,,,,,,,,,,,,,,,,,,,
,,,,,,,,,,,,,,,,
,,,,,,,,,,,,,,,,
1,,,,,,,,,,,,,,,,
2,,,,,,,,,,,,,,,,
3,,,,,,,,,,,,,,,,
4,,,,,,,,,,,,,,,,
5,,,,,,,,,,,,,,,,
6,,,,,,,,,,,,,,,,
7,,,,,,,,,,,,,,,,
8,,,,,,,,,,,,,,,,
4h[4:2],,,,,,,,,,,,,,,,
3,,,,,,,,,,,,,,,,
5h[4:2],,,,,,,,,,,,,,,,
6,,,,,,,,,,,,,,,,
4,,,,,,,,4,,,,,,,,
3,,,,,,,,1h[4:1],,,,,,,,
3,,,,1,,,,6,,,,8b,,,,
2-6[4:2],,,,,,,,,,,,,,,,
3,,,,,,,,3,,,,,,,,
6,,,,,,,,6,,,,,,,,
2,,,,,,,,3,,,,,,,,
1-4[4:2],,,,,,,,,,,,,,,,
3,,,,,,,,1,,,,,,,,
3,,,,,,,,3,,,,,,,,
8,,,,,,,,6,,,,,,,,
1b>7[4:2],,,,,,,,,,,,,,,,
1,,,,,,,,2,,,,,,,,
3,,,,,,,,4,,,,,,,,
5,,,,,,,,6,,,,,,,,
1,,,,,,,,2,,,,,,,,
3,,,,,,,,4,,,,,,,,
5,,,,,,,,6,,,,,,,,
7,,,,,,,,8,,,,,,,,
1,,,,,,,,3,,,,,,,,
45,,,,,,,,45,,,,,,,,
1h[4:2],,,,,,,,,,,,,,,,
2>6[4:2],,,,,,,,,,,,,,,,
7,,,,,,,,,,,,,,,,
3h[4:2],,,,,,,,,,,,,,,,
45,,,,,,,,3,,,,,,,,
6,,,,,,,,2,,,,,,,,
4,,,,,,,,1b>7[4:2],,,,,,,,
,,,,,,,,,,,,,,,,
4,,,,,,,,6,,,,,,,,
8,,,,,,,,7,,,,,,,,
6,,,,,,,,5,,,,,,,,
6,,,,,,,,7,,,,,,,,
5,,,,,,,,3,,,,,,,,
1,,,,,,,,2,,,,,,,,
4,,,,,,,,7,,,,,,,,
3,,,,,,,,4,,,,,,,,
3,,,,,,,,5,,,,,,,,
7-4[4:1],,,,,,,,,,,,,,,,
3,,,,,,,,4,,,,,,,,
6-1[4:1],,,,,,,,,,,,,,,,
6,,,,,,,,5,,,,,,,,
8,,,,,,,,7,,,,,,,,
5,,,,,,,,3,,,,,,,,
1,,,,,,,,2,,,,,,,,
1,,,,,,,,7-4[4:1],,,,,,,,
,,,,1,,,,,,,,,,,,
6,,,,,,,,6-1[4:1],,,,,,,,
,,,,5,,,,,,,,,,,,
1,,,,,,,,3,,,,,,,,
5,,,,,,,,7,,,,,,,,
1,,,,,,,,3,,,,4b/5b,,,,,,,,,,,,,,,,,,,,
,,,,,,,,,,,,,,,,
,,,,,,,,,,,,,,,,
,,,,,,,,,,,,,,,
&inote_3=(137)
{16},,{32},{16},,,,,,,,,,,,,,,,,,,,,,,,,,,,,,
,,,,,,,,,,,,,,,,
,,,,,,,,,,,,,,,,
45,,,,6,,5,,,,5,,6,,,,
3,,4,,3,,5,,3,,,,6,,,,
54,,,,3,,4,,,,4,,3,,,,
6,,5,,6,,4,,6,,,,3,,,,
18,,,,7,,8,,,,8,,7,,,,
2,,1,,2,,8,,2,,,,7,,,,
81,,,,2,,1,,,,1,,2,,,,
7,,8,,7,,1,,7,,,,2,,,,
4h[4:2],,,,5,,,,5,,,,3,,5,,
,,5,,4,,5,,3,,5,,,,,,
5h[4:2],,,,4,,,,4,,,,6,,4,,
,,4,,5,,4,,6,,4,,,,,,
4,,5,,4,,6,,4,,7,,4,,8,,
3,,8,,2,,8,,1h[4:1],,,,,,,,
3,,,,1b/8b,,,,6,,,,1b/8b,,,,
2b,,,,3b,,,,4b,,,,5b,,,,
3,,5,,3,,6,,3,,7,,4,,,,
6,,4,,6,,3,,6,,2,,5,,,,
2,,6,,4,,8,,3,,7,,1,,,,
1-4[4:1],,,,,,,,5-8[4:1],,,,,,,,
3,,,,2,,7,,1,,8,,2,,7,,
3,,6,,4,,5,,3<6[4:1],,,,,,,,
8,,4,,7,,3,,6,,2,,5,,1,,
2,,2b,,4,,4b,,6,,6b,,8,,8b,,
45,,,,1,,1,,,,2,,2,,,,
3,,3,,,,4,,4-7[4:1],,,,,,,,
2-5[4:1],,,,,,,,7,,7,,7,,,,
54,,,,8,,8,,,,7,,7,,,,
6,,6,,,,5,,5-2[4:1],,,,,,,,
7-4[4:1],,,,,,,,2,,2,,2,,,,
45,,,,3,,3,,,,6,,6,,,,
2,,2,,,,7,,7-4[4:1],,,,,,,,
3-8[4:1],,,,,,,,5,,5,,5,,,,
45,,,,7,,7,,,,2,,2>7[4:3],,,,
,,,,,,,,,,,,,,,,
1s5[4:3],,,,,,,,,,,,,,,,
7h[4:4],,,,,,,,,,,,,,,,
3h[4:2],,,,,,,,6,,,,8b,,,,
45,,,,2,,2,,,,6,,6,,,,
3,,3,,,,,,4,,8,,2,,6,,
4,,5,,4,,5,,4b,,,,3b,,,,
2b,,,,1b,,,,2-5[4:1],,,,7,,,,
8,,8,,8,,,,7-4[4:1],,,,2,,,,
1,,1,,1,,,,2,,6,,3,,7,,
4,,,,8,,4,,,,7,,3,,6,,
1,,1,,1,,,,7-4[4:1],,,,2,,,,
3,,3,,3,,,,2-5[4:1],,,,7,,,,
6,,6,,6,,,,7,,3,,6,,2,,
5-8[4:1],,,,2,,2,,,,6,,45,,,,
8,,,,2b/7b,,,,1,,,,2,,,,
3,,,,4,,5,,,,6,,,,7b,,
,,,,45,,,,36,,,,27,,,,
18,,,,3,,3,,,,,,1,,
,,2,,,,45,,,,2-5[4:1],,,,7,,,,
8,,8,,8,,,,7-4[4:1],,,,2,,,,
1,,1,,1,,,,2,,6,,3,,7,,
4,,,,8,,4,,,,7,,3,,6,,
1,,1,,1,,,,7-4[4:1],,,,,,1,,
,,,,2-5[4:1],,,,,,8,,,,,,
6,,6,,6,,,,6-1[4:1],,,,,,4,,
,,,,3-8[4:1],,,,,,5,,,,,,
7,,7,,7,,,,2,,7,,2,,,,
3,,6,,3,,,,26,,,,37,,,,
48,,,,48,,,,37,,,,2b/6b,,,,,,,,,,,,,,,,,,,,
,,,,,,,,,,,,,,,,
,,,,,,,,,,,,,,,,
,,,,,,,,,,,,,,,
&inote_4=(137)
{16},,{32},{16},,,,,,,,,,,,,,,,,,,,,,,,,,,,,,
2q4[4:2],,,,,,,,,,,,,,,,
7<2[4:2],,,,,,,,,,,,,,,,
4h[4:3],,,,5,,6,,,,6,,5,,4,,
3,,5,,4,,6,,7<4[4:1],,,,4,,,,
3h[4:3],,,,7,,6,,,,6,,7,,8,,
1,,2,,3,,4,,5,,6,,78,,,,
5h[4:3],,,,4,,3,,,,3,,4,,5,,
6,,4,,5,,3,,2>5[4:1],,,,5,,,,
6h[4:3],,,,2,,3,,,,3,,2,,1,,
8,,7,,6,,5,,4,,3,,21,,,,
4b>1[4:1],,,,8<5[4:1],,,,,,,,2,,2h[4:1],,
,,7,,3,,8,,4,,7,,,,,,
5b<8[4:1],,,,1>4[4:1],,,,,,,,7,,7h[4:1],,
,,2,,6,,1,,5,,2,,,,,,
45,,2,,45,,7,,45,,3,,45,,6,,
3,,4,,5,,6,,7<4[8:1],,,,,,,,
2-5[8:1],,,,7b/2b,,,,7-4[8:1],,,,2b/7b,,,,
1b/8b,,,,2b/3b,,,,4b/5b,,,,6b/7b,,,,
12,,3,,45,,6,,78,,6,,45,,,,
87,,6,,54,,3,,21,,3,,54,,,,
35,,1,,36,,2,,46,,7,,45,,,,
2h[4:1],,,,6h[4:1],,,,4h[4:1],,,,8b,,,,
45,,3,,45,,2,1,2,,7,8,7,,3,,
45,,6,,78,,1,,2h[4:1]/3h[4:1],,,,,,,,
8,,7,,6,,5,,4,,3,,2,,1,,
2,1,2b,,3,4,3b,,6,5,6b,,7,8,7b,,
4h[8:3]/5,,,,5,,5h[8:3],,,,3,,3h[8:3],,,,
6,,6h[8:3],,,,1,,2,,,34,,,56,,
45,,,6,,,7,,1>3[8:1]/8,,8,,8,,,,
5h[8:3]/4,,,,4,,4h[8:3],,,,6,,6h[8:3],,,,
3,,3h[8:3],,,,8,,7,,,65,,,43,,
54,,,3,,,2,,8<6[8:1]/1,,1,,1,,,,
45,,,,12,,12,,,,78,,78,,,,
56,,56,,,,34,,3h[16:3],,,4h[16:3],,,5,,
6h[16:3],,,5h[16:3],,,4,,3,,7,,2,,36,,
45,,,,12,,12,,,,78,,7<1[4:3]/8,,,,
,,,,,,,,,,,,,,,,
2V41[4:2]/6V85[4:2],,,,,,,,,,,,,,,,
7qq4[4:3]/3qq8[4:3],,,,,,,,,,,,,,,,
,,,,,,,,6,,7,,8b,,,,
54,,,,87,,87,,,,21,,21,,,,
34,,3-8[8:1]/4,,,,,,7,,7,,26,,26,,
4,5,4,5,4,5,4,5,4b,,,,3b,,,,
2b,,,,1b,,,,2-5[8:1],,2,,6-1[8:1],,6,,
2,,3,,4,,5,,7-4[8:1],,7,,3-8[8:1],,3,,
7,,6,,5,,4,,34,,18,,56,,18,,
2h[4:1]/7,,,,6,,6,,,,2,,7,,3,,
6,5,6,5,6b,,,,6-1[8:1],,6,,2-5[8:1],,2,,
6,,7,,8,,1,,3-8[8:1],,3,,7-4[8:1],,7,,
3,,2,,1,,8,,78,,54,,12,,54,,
6h[4:1]/3,,,,2,,2,,,,6,,45,,7,,
8,,1,,2b/7b,,,,1-4[8:1],,,,8-5[8:1],,,,
1-4[8:1],,,,7,,7<4[8:1],,,,3>8[8:1],,,,7b,,
,,,,45,,7,,45,,3,,12,,3,,
4/5h[4:1],,,,3,,3,,,,15,,26,,
37,,4-1[8:1]/8-5[8:1],,,,4b/8b,,,,2,,3,,4,,
5,,6,,7,,18,,18,,7,,6,,5,,
4,,3,,2,,18,,18,,2,,35,,46,,
35,,4/6-8[8:1],,,,2b,,2b,,,,3,,4,,
5,,6,,7,8,7b,,,,5h[8:3]/4,,,,2,,
2h[8:3],,,,7,,7h[8:2],,,,2,,2h[8:2],,,,
7,,6,,5,,45,,45,,6h[8:3]/3,,,,4,,
4h[8:3],,,,7,,7h[8:3],,,,1,,1h[8:2],,,,
8,,7,,6,,45,,45,,37,,2,,15,,
2,,37,,4,,37,,26,,3,,48,,3,,
26,,4b/5b,,,,36,,2,,18,,27,,3b/6b,,,,,,,,,,,,,,,,
,,,,,,,,,,,,,,,,
,,,,,,,,,,,,,,,,
,,,,,,,,,,,,,,,
&inote_5=(137)
{16},,{32},{16},,,,,,,,,,,,,,,,,,,,,,,,,,,,,,
1>5[4:2]/5,,,,6,,7,,8,,,,7,,,,
1,8,1,8,2,,6,,3<6[4:1],,,,,,,,
8b<5[4:1],,,,2,,3,,,,4,,3,,7,,
1>4[8:1]/8,,7,,1,,6,
,3h[4:1]/7-4[8:1],,8,,7,,2b,,
1h[4:1]/6>4[8:1],,7,,6,,2,,3<5[8:1]/6h[4:1],,2,,3,,7,,
8-5[8:1]/1,,7,,8-3[8:1]/2,,1,,7/8-4[8:1],,6,,1/8b,,,,
2b>5[8:1]/6h[4:1],,1,,2,,7,,,,56,,7,,8,,
8<5[8:1]/1,,2,,3>8[8:1]/8,,4,,35,,6,,7,,1b/8b,,
7<4[8:1]/3h[4:1],,8,,7,,2,,,,43,,2,,1,,
1>4[8:1]/8,,7,,6<1[8:1]/1,,5,,64,,3,,12,,78,,
5b-1[8:1]/6b,,,,4V27[4:1]/5,,,,47,,,,6,,6h[4:1],,
,,1q5[8:1],,8-6[8:1],,1,,8,,2h[8:3],,,,,,
7b-1[8:1],,,,1-5[8:1]*v3[8:1]/7,,,,1,,,,2,,2h[4:1],,
,,7-1[8:1],,1v3[4:1],,,,6,,6h[8:3],,,,,,
3,5,3,6,4,5,4,6,4h[8:1],,,,4h[8:1]/3h[8:1],,,,
2h[4:1],,6,,7h[4:1],,3,,1-4[8:1],,,,18,,,,
7w3[8:1],,,,7b,,,,2w6[8:1],,,,2b,,,,
1b>4[8:1]/5,,,,1b<6[8:1]/5,,,,1b-5[8:1]/5,,,,1b/8,,,,
34,,2,2,5,,45,,7-4[8:1],4,6,5,7,,,,
2,5,3,4,6,5,7,4,8-4[8:1],2,7,1,8,,2,,
3,7,2,6,1,5,2,6,3<6[8:1],7,2,6,3,,8,,
1b-5[8:1]/8,,,,4b-2[8:1]/1,,,,7b-4[8:1]*-2[8:1],,,,7b,,,,
34,,1,,7,8,6,1,2>5[8:1]/5,,1,7,2,,8,,
3/7<4[8:1],,6,,3>8[8:1]/7,,2,,7h[4:1]/3q5[4:1],,,,,,,,
8<5[8:1],,2>5[8:1],,8v6[8:1],,2v5[8:1],,8v3[8:1],,2,,8,,,,
2b,5,2h[8:1],,7b,4,7h[8:1],,2b,5,2h[8:1],,7b,4,7h[8:1],,
1>4[8:1],,,,15,,5<8[8:1],,,,25,,2>5[8:1],,,,
26,,6<1[8:1],,,,26,,3h[16:3],,,4h[16:3],,,5,,
6h[16:3],,,4h[16:3],,,7h[16:2],,1-5[8:1],,8-4[8:1],,1,,8,,
2q6[8:1],,,,27,,7<4[8:1],,,,73,,3v8[8:1],,,,
36,,6q2[8:1],,,,36,,4h[16:3],,,8h[16:3],,,3,,
3h[16:3],,,5h[16:3],,,2h[16:2],,7-3[8:1],,1-5[8:1],,7,,1,,
8<5[8:1],,,,84,,4>1[8:1],,,,74,,7<4[8:1],,,,
73,,3>8[8:1],,,,73,,6h[16:3],,,5h[16:3],,,4,,
2h[16:3],,,8h[16:3],,,3h[16:2],,5,,1,,7,,3,,
7p3[8:1],,,,72,,2>5[8:1],,,,26,,6<5[8:5],,,,
56,,,,,,,,,,,,6,4,5,3,
6<3[4:2]/4h[4:3],,,,,,,,,,,,,,,,
7h[4:1],,,,3h[4:1],,,,6h[4:2],,,,1s5[4:2],,,,
,,,,,,,,7-4[8:1],,8,,7b/2,,,,
1pp3[8:1],,,,51,,5pp7[8:1],,,,25,,2q7[8:1],,,,
26,,6>3[8:1],,,,26,,1,,27,,36,,45,,
2,6,4,8,{32}1,2,3,4,5,6,7,8,{16}1b,,,,2b,,,,
3b,,,,4b,,,,6,6,3,5,3,,2,4,
2-5[8:1],,6-1[8:1],,2,,6,,3,,2,1,2,,7,8,
7-4[8:1],,3-8[8:1],,7,,3,,6h[8:1],,1h[8:1],,7h[8:1],,2h[8:1],,
8-4[8:1],,,,2/8b,,2>5[8:1],,,,26,,7,,8,,
2-5[8:1],1,3,8,2b,,,,3,3,6,4,6,,7,5,
7v4[8:1],,3v8[8:1],,7,,3,,6,,7,8,7,,2,1,
2v5[8:1],,6v1[8:1],,2,,6,,3h[8:1],,8h[8:1],,2h[8:1],,7h[8:1],,
1-5[8:1],,,,7/1b,,7<4[8:1],,,,73,,2,,1,,
8w4[8:1],1,7,2,8b,,,,2-5[8:1]/6,,,,7-4[8:1]/2,,,,
1-5[8:1]/7,,,,18,,8-5[8:1]*<5[8:1],,,,8b>3[8:1]*-3[8:1],,,,8b,,
,,,,45,,7,8,7,,2h[8:1],,6h[8:1],,4h[8:1],,
8h[4:1],,,,1,,1h[4:1],,,,5,,4-8[8:1]/8-4[8:1],,
2b/6b,,4>1[8:1]/8<5[8:1],,,,4b/8b,,,,2-5[8:1],5,3,4,2,,
6,3,8V63[8:1]/4V27[8:1],,26,,4b/8b,,,,7-4[8:1],4,6,5,7,,
3,6,1V36[8:1]/5V72[8:1],,73,,5b/1b,,,,4h[4:1],,7,,5h[4:1],,
2,,4-8[8:1],,,,2b/4,,2b,,,,34,,56,,
78,,2>5[8:1],1,2,1,2b,,,,7<4[8:1]/8,,,,17,,
1-5[8:1],,,,71,,7-3[8:1],,,,17,,1>4[8:1],,,,
1/5-1[8:1],,7,,25,,4,,57,,2>5[8:1]/1,,,,82,,
8-4[8:1],,,,28,,2-6[8:1],,,,82,,8<5[8:1],,,,
8/4-8[8:1],,2,,74,,5,,43,,2,1,3,8,2,,
6,4,5,3,6,2,7,,1,8,2,2,5,5,3-8[8:1]/4-7[8:1],,
25,,3b/4b,,,,6,4,8,3,1-6[8:1]/2-5[8:1],,38,,1b/2b,,,,,,,,,,,,,,,,
,,,,,,,,,,,,,,,,
,,,,,,,,,,,,,,,,
,,,,,,,,,,,,,,,
&inote_6=(137)
{16},,{32},{16},,,,,,,,,,,,,,,,,,,,,,,,,,,,,,
{1}
5qq2[4:2]/4,
4pp7[4:2]/5,
{8}
4h[4:1]/7x,,6,5-7[8:1],,3-5[8:1],2,,
7>2[8:1],6,5,4,3,2-5[8:1],1,2/8,
7xh[4:1],,3,4-2[8:1],,6-4[8:1],7,,
2<7[8:1],3,4,5,6,7-4[8:1],8,71,
2xh[4:1],,4,5-2[8:1],,7-4[8:1],6,,
1-5[8:1],8,7,6,6,5-1[8:1],6,57,
8xh[4:1],,5,4-7[8:1],,2-5[8:1],3,,
8-4[8:1],1,2,3,3,24,5,46,
3x-1[8:1]/5x,,5-7[8:1],,4-8[8:1],,7,7h[4:2],
,4,5,6>2[4:1],7,8h[8:3],,,
1-3[8:1],,7-5[8:1],,8-4[8:1],,6,6h[8:3],
,4,5-1[8:1],6,7-3[8:1],8,,,
{16}
2,4,2,4,3,5,3,5,4,,5,,6,,7,,
{8}
4h[4:1],5,6h[4:1],5,4v1[8:1]*-2[8:1],,,,
{4}
2V86b[8:1]/7-3b[8:1],7bx/2bx,2V86b[8:1]/7-3b[8:1],7bx/2bx,
5xV71b[8:1]/2x-6b[8:1],2bx/5bx,4xV25b[8:1]/6xV85b[8:1],4bx/6bx,
{16}
7x,,2,4,2,,6,,E4,B6,B2,E8,E1,,,,
3x,4,2,5,3,4,2,5,3x,,B1/B8,,4x,,B7/B6,,
3,5,4,6,6,4,5,3,E8,E1,E2,,C,,E5,,
1x-5[8:1]/8x-6[8:1],,,,1x/8x,,,,1x-3[8:1]/8x-4[8:1],,,,1x/8x,,,,
56,,7,,6,4,5,3,7h[8:1],,1,8,2,,3,,
4h[4:1],,6,,8h[4:1],,4,,2w6[8:1],,,,,,,,
2-5[8:1],,3,,2-6[8:1],8x,,8,2x-5[8:1],,7x,8x,2x,,7,,
3b,4b,2bh[8:1],,6b,5b,7bh[8:1],,3b,5b,1bh[8:1],,6b,4b,8bh[8:1],,
4b>1[8:1],,,,4/7x,,5b<8[8:1],,,,1x/5,,4b>1[8:1],,,,
4/8x,,5b<8[8:1],,,,1x/5,,3h[16:3],,,5h[16:3],,,7,,
1h[16:3],,,4h[16:3],,,7,,1-6[8:1]/2-5[8:1],,38,,{32}12,E1/E3,B3/B8,B4/B7,{16}E5/E7,,
1b>4[8:1]/5x,,,,1/6x,,8b<5[8:1],,,,4x/8,,1b>4[8:1],,,,
1/5x,,8b<5[8:1],,,,4x/8,,2h[16:3],,,4h[16:3],,,6,,
7h[16:3],,,5h[16:3],,,3h[16:2],,1pp3[8:1]*qq7[8:1],,28,,C,,,,
5bx<1[8:1]/1x,,,,2x/5,,4bp7[8:1],,,,8x/4,,6b<2[8:1],,,,
3x/6,,5bp7[8:1],,,,5/1x,,6h[16:3],,,1h[16:3],,,3,,
5xh[16:3],,,2h[16:3],,,8,,71,,2,,34,,5,,
6b<2[8:1]/1x,,,,2x/6,,4bp7[8:1],,,,8x/4,,5b-7-5-8b[8:5]*-3-5-2b[8:5],,,,
,,,,,,,,,,,,B3,B4,B5,B6,
8x-4-2[4:2],,,,,,,,,,,,,,,,
B3/E3/B4,,,,B3/B4/E5,,,,2xqq6[4:2]/7xpp3[4:2],,,,,,,,
,,,,,,,,2-5[8:1]/1-6[8:1],,38,,1x/2x,,,,
1b>5[8:1]/8,,,,15,,6b<2[8:1],,,,26,,3bq7[8:1],,3,,
8xq4[8:1],,8x,,5xq2[8:1],,5x,,7x>3[8:1],,7x,,4x,,4x,,
5x,8,5,8,{32}4,3,2,1,8,7,6,5,{16}4bx/E3f,,,,6bx/E1f,,,,2bx/B7f,,,,8bx/B2f,,,,
2x-5[8:1],1,3,1,2,,1,1,2b-5b[8:1],,1b-6b[8:1],,2b,,1b,,
3x-8[8:1],,4,5,3,,6,6,3b-8b[8:1],,4b-7b[8:1],,3b,,4b,,
3x,,{48}8bx,D1,A1,D2,A2,,{16}4xpp2b[8:3],,{48}8bx,D8,A7,D7,A6,,{16}4bx,,,,E8,C,E4f,,
,,6x,,4x,,5x/3x,,8b-5b[8:1]/1b-4b[8:1],,7b/2b,,8b/1b,E2/B2/B3/E4/C/E8/B7/B6/E6,,,
7x-4[8:1],8,6,8,7,,8,8,7b-4b[8:1],,8b-3b[8:1],,7b,,8b,,
6x-1[8:1],,5,4,6,,3,3,6b-1b[8:1],,5b-2b[8:1],,6b,,5b,,
6x,,{48}1bx,D1,A8,D8,A7,,{16}5xqq8b[8:3],,{48}1bx,D2,A2,D3,A3,,{16}5bx,,,,{32}A2,B2,C,B6,A6f,,,,{16}
,,3x,,5x,,6x/4x,,8xw4b[8:1],2x,7x,1x,8bx,B8/C/B4/B3/B5,,,
1x-4[8:1]/2x,,,,8x-5[8:1]/1x,,,,7x>2[8:1]/8x,,,,6x/7x,,5b-1b[8:1],,
,,4b>6b[4:1]/5b,,,,3b/4b,,,,3,,2x/5x,,1,8,
3x,,{48}8bx,D8,A7,D7,A6,,2x-6<1-5b[8:3],D3,A3,D4,A4,,{48}8bx,D8,A7,D7,A6,,{16}2bx,,,,E8,C,E4f,,
,,2x/8x,,3,,17,,{48}4bpp4b[8:1]*qq4b[8:1],D4/D5,A5/A3,D6/D3,A6/A2,D7/D2,,,,,,,{16}4bx,,,,
7xv4[8:1],8,5,2,7,,8,8,7b-4b[8:1],,3b-8b[8:1],,7b,,3b,,
6q2[8:1],,5,4,6,,3,3,6b-1b[8:1],,2b-5b[8:1],,6b,,2b,,
6x,,{48}1bx,D2,A2,D3,A3,,7x-3>8-4b[8:3],D7,A6,D6,A5,,{48}1bx,D2,A2,D3,A3,,{16}7bx,,,,E2,C,E6f,,
,,1x/2x,,34,,56,,8bw4b[8:1]/7,,2bx/6bx,,8b,B8/C/B4/B3/B5,,,
6bx<1[8:1]/2b,,,,{32}6x/1b,2,3,4,{16}5x>2[8:1],,,,{32}5x/1b,8,7,6,{16}5x<8[8:1],,,,{32}5x/8b,1,2,3,{16}4>1[8:1],,,,
4x/7,,5,,2/3,,4/5,,6/7,,3bx>8[8:1]/4b,,,,{32}3x/8b,7,6,5,{16}4x<7[8:1],,,,{32}4x/8b,1,2,3,{16}4x>1[8:1],,,,
{32}4x/1b,8,7,6,{16}5<8[8:1],,,,52,,4x-1[8:1],,8x-5[8:1],,4x,,8x,,
2,2,4,3,5,4,6,5,7x-5[8:1],1x,8x-4[8:1],2x,7x,,8x,,
7,7,5,5,4xbw8b[8:1],,2b/6b,,4b,,,,2,2,4,4,5xbpp5b[4:1]*qq5b[4:1],,2b/8b,,5bx,,,
,,,,,,,,,,,,,,,,
,,,,,,,,,,,,,,,,
,,,,,,,,,,,,,,,
