&title=To the Moon - Main Theme
&artist=Kan R. Gao
&first=0
&des=月缺
&lv_5=14
&inote_5=(56.5)
{2},
{4}4/5h[2:1],,
{4}3h[4:1],7h[4:3],,,
{4}4>1[6:1],,6<1[4:1]*<1>4b[2:1],1<5b[4:1],
{4},,4h[2:1]/5>8[6:1],,
{4}8<4b[40:9]*<4q8[8:3],4qq1[8:3],,{8}6,7,
{4}8h[4:1]/1q5[8:1],,6h[4:1]/4p7[8:1],,
{4}8h[4:1]/5q3[8:1],,3h[4:1]/5-1[8:1],{8},2,
{8}3>8<5[5:1],8-5[40:3],,,4x>1<6[5:1],1-6[40:3],,,
{8}5x<8>3[5:1],8-5[40:3],,,6x<1>4[5:1],1-6[40:3],,,
{16}5x<1b[8:3]*<1p5[8:5]/6x,,4,4,4,,3,,2h[8:3],,,,,,,,
{16}6x<1>4[2:1],,,,1x>4<7b[2:1],,,,4x<7>2[2:1],,,,7x>2b[4:1],,,,
{16}2xqq6<1[8:5],,3,3,3,,4,,2x>5[8:1],,1x,,,,,,
{16}4<8p4[12:5],3,,,8p4>3>1b[3:1],,,3,3>1<7[5:1]*>1<7[5:1],3h[16:3],,,,,3x,,
{16}5b,,5xh[16:1]/2,,7>1>3b[4:1]/4xh[16:1],,1>3<5[4:1]*qq7b[8:1]/5xh[16:1],,7q3q8[4:1],,,,,,,,
{16}4x<8>2b[16:3],8xqq5[16:3],2x,,,,,,4x<6<2b[16:3],6xpp4[16:3],2x,,,,,,
{16}3b,,4xh[16:1]/7,,2<8<6b[4:1]/5xh[16:1],,8<6>4[4:1]*pp2b[8:1]/4xh[16:1],,2p6p1[4:1],,,,,,,,
{16}5x>1<7b[16:3],1xpp4[16:3],7x,,,,,,5bw1[6:1],,,,,,,,
{4}B1`B8,B2,B3`E3,B4,
{16}Cf,,,,,,8bxh[8:1],,{32}1>4[16:1],7,1>4-7[16:1],6,1>4-1[16:1]*>4-1[16:1],5,1>4-8b[16:1],4,{16},,,,
{16}2x>4<5-8[16:3],4-1-6[8:1],2,4x,,,,,7x<5>4-1[16:3],5-8-3[8:1],7,5x,,,,,
{16}3x>1<6[8:1],1-4[16:1],4qq2[12:1]*pp6[12:1],1x,,,,,6x<8>1>3[8:1],8-5[16:1],5-1[16:1]*-1[16:1],1x-4b[16:1],,,,2x,
{16}1x-5[16:1],7x,E4,E3,8x-4[16:1],6x,E3,E2,7x-3[16:1],5x,E2,E1,6x-2[16:1],4x,E1,E8,
{16}5xV36b[8:1]*V36-8[16:3],6,6-2-5[8:1],5x,,,,,8x<6>4>2<8[4:1]*<6>4>2<8[4:1],2x,4x,6x,,,,,
{16}4bx>3>1<5[8:3]*>3>1<5[8:3],3qq1[8:1],4,3,,,,,4x<1>3<4b[8:3],3q1[8:1],4,3,,,,,
{16}5x<6<8>4[8:3]*<6<8>4[8:3],6pp8[8:1],5,6,,,,,5x>8<6>5b[8:3],6p8[8:1],5,6,,,,,
{16}4bx>3>8<5[8:3]*>3>8<5[8:3],3q8[8:1],4,3,,,,,4x<8>3<4b[8:3],3v8[8:1],4,3,,,,,
{16}5x<6<1>4[8:3]*<6<1>4[8:3],6p1[8:1],5,6,,,,,5xV37b[16:2],6-3b[16:1],5,6w2[1:1],,,,,
{1},
{16}3,4,3,4,3qq5[2:1],4,3,4,B5,B6,,,B8,,C,,
{16}6x,4/5,4/5,4/5,2x,1/5,1-4b[16:1]*>4b[16:1]/6,1/7,1x-6[16:1]*<6[16:1]/8x,1/8,1bxw5[16:1],,1bx,,1bx,,
{16}2x>5<7[8:1],5q5[8:1]*<7>1[8:1],2,5xqq3b[16:1],,,,,7x<4>2[8:1],4p4[8:1]*>2<8[8:1],7,4xpp6b[16:1],,,,,
{16}3x>1<8<6[8:1],8p3[16:1],3qq1[12:1]*pp5[12:1],8x,,,,,6x<1>3[8:1],1q6[16:1],6q3[16:1]*q3[16:1],1x>3<6b[16:1],,,,2x,
{16}1bx-5[16:1],3x,6,8,2bx-6[16:1],4x,7,1,3bx-7[16:1],5x,8,2,4bx-8[16:1],6x,1,3,
{16}4bxV25b[8:1]*V25-7[16:3],5,5-8-4[8:1],4x,,,,,8x>2>4<6<8[32:7]*q4q8[32:7],6x,4x,2x,,,,,
{16}2bx<1<6b[8:1],1p3[8:1]*<6>3[8:1],2,3xp1[8:1],,,,,6x>5>2b[8:1],5p7[8:1]*>2<8[8:1],6,7xp5[8:1],,,,,
{16}3x<4<7b[8:1],4q2[8:1]*<7>2[8:1],3,2xq4[8:1],,,,,7x>8>3b[8:1],8xq6[8:1]*>3<5[8:1],7x,6xq1[8:1],,,,,
{16}2bx>3<6b[8:1],3q1[8:1]*<6<1[8:1],2,1xq4[8:1],,,,,6x<7>2b[8:1],7q5[8:1]*>2>5[8:1],6,5xq6[8:1],,,,,
{16}3x>2<7b[8:1],2p4[8:1]*<7<4[8:1],3,4xp2[8:1],,,,,7x<6>3b[8:1],6p8[8:1]*>3>8[8:1],7,8xw4[1:1],,,,,
{1},
{16}7,8,7,8,7qq1b[2:1],8,7,8,B1,B2,,,B4,,C,,
{64}B3,B4,B5,B6,
E
