&title=トリックハート
&artist=MIMI feat. 重音テトSV
&first=0
&des=Num_
&lv_5=13+
&des_5=Num_
&inote_5=
(150){4},{1},{4},,,{16}3h[8:7],
,,5,,,{8}5,,5,5,5,
{16}6h[8:7],,,4,,,{8}4,,3,3,3,
{16}2h[8:7],,,5,,,{8}5,,6,6,6,
{4}7h[2:1],3h[4:1],{8},5,4,3,
{4}6pp5[8:3]/4qq5[8:3],,,5-2[8:1],
6V48[4:1],1,1,4h[2:1],
{8}7,6,5,4,3,2,5,6,
{4}7<2[4:1],2>7[4:1],{8},,,,4,
5,6,7,5,4,3,2,
7/3,6/4,7/2>4[8:1],5/3,,,{4}5-7[8:1],
3qq5[8:3],6pp4[8:3],{8},,,,6/2,
6/2,6/2,6/2,{2}6-3[8:1]/2-5[8:1],
{8}2b/6b,{16}5,4,{8}5,6,4,5,2,7,
8/1v3[8:1],{16}2>8[4:1],8,{4}1,{8},,1,1,
6/2,{16}3-1[8:1],5,{4}4-7[8:1],{8},,1>4[8:1],8,
7,6,5<8[8:1],4,{16},3,,,{4}3-5-7-1-3[8:3],
4-8[8:1],4,{8}2,3,4V62[4:1],5,
6,7,8-4[8:1],1,{4}8/2h[4:1],{8}5,6,
{16}7V16[4:1],,,1,{4}7-3[8:1],{8},,4-7[8:1],3,
2,1,8-3[8:1],7,6/8,E8/B7/B8,{4}B4/E4/B3,
{8}3,{16}5,4,6,5,6,4,{8}5,4,3,2,
{16}5,3,6,4,{8}6,{16}6,4,{8}5,6,7,8,
1,{16}8-4[8:1],1,{4}7,{2}3>8[8:1],
{8}8/7-4[8:1],1/6,{4}7/8-3[8:1],8<5[8:1],2,
{8}6/4,{16}3-7[8:1],5,{4}4-8[8:1],{8},,7,7,
7/1,{16}2-6[8:1],8,{8}1-5[8:1],2x-4[8:1],1x-7[8:1],2x,{4}1xq5[8:1],
{8}8x,7,6-1[8:1],5,2x,3,4qq4b[4:1]*pp4b[4:1],5,
,,,,{4}A1/B8/B7/E1/E2/B2/B3/C/E4/A4/E7/A6,{8}5,4,
3/6,{16}5,3,{8}4,3,4,6,7,8,
3/8,{16}2,1,{8}2,4,2,5,2,6,
4/7,{16}5,4,{8}6,1,8,7,6,4,
7/1,2,2,5,{4}4h[4:1],{8}5,6,
7/4,{16}3,5,{8}4,2,3,4,6,5,
5/2,1,8,7,6,1,6,4,
6/3,{16}6,4,{8}5,6,7,{24}2,3,4,{8}5,6,
7/4,5,6,3,4,6/3,{4}3/6,
{16}5/3h[8:7],,,5,,,{8}5,,6,6,6,
{16}4/6h[8:7],,,4,,,{8}4,,3,3,3,
{16}5/2h[8:7],,,5,,,{8}5,,6,6,6,
7,8,{4}1h[4:1],{8},5,6,7,
{4}4pp3[8:3],{8},,,,2,3,
4qq8[2:1],5,{4}7h[4:3],{8},,,,4,
3,2-5[8:1],1,8,7,6-1[8:1],5,
4,3,2-6[8:1],1,{16},,,,,,,,3/5,
,,3/5,,,{8}3/5,,3,{4}3/E8/B7/B8,
{16}6/4,,,6/4,,,{8}6/4,,6,{4}6/E2/B2/B1,
{1}Ch[4:3],
{8}5/2,5/2,5/2,5/2,5/2,B7/E8/B8,{4}B3/B2/E3,
{8}6b/2b,{16}5<1V75[2:1],4,{4}5,{8},,,,8/1,
{16}2>5>2[4:1],8,{4}1,{8},,1,1,
6/2,{16}3-8[8:1],5,{4}4q8[8:1],{8},,1>4[8:1],8,
7,6,5<8[8:1],4,{4}3-7[8:1],3,
{8}3/4-7-4[4:1],{16}5,3,{4}4,{8}2,3,4-2>5[4:1],5,
6,7,8-4[8:1],1,{4}8/2h[4:1],{8}5,6,
{16}7-4-8[4:1],,,1,{4}7-3[8:1],{8},,4-7[8:1],3,
2,1,8-3[8:1],7,6/8,E8/B7/B8,{4}B4/E4/B3,
{8}3,{16}5,4,{8}6,{16}5,3,{8}4,4,3,2,
{16}5,3,6,4,{8}6,5,3,4,5,6,
1,{16}8-4[8:1],1,{4}7h[2:1],{8},,,,8/7-4[8:1],
1/6,{4}7/8-3[8:1],8<5[8:1],2,
{8}6/4,{16}3-7[8:1],5,{4}4-8[8:1],{8},,7,7,
7/1,{16}2-6[8:1],8,{8}1-5[8:1],2x-4[8:1],1x-7[8:1],2x,{4}1xq5[8:1],
{8}8x,7,6-1[8:1],5,2x,3,4qq4b[4:1]*pp4b[4:1],5,
,,,,{4}A1/E2/B2/B3/B4/B5/B6,{8}7,8,
6/1,{16}7,8,{8}7,6,{16}7/4,,,6/4,,,{8}5/3,
6/4,1,8,7,5/3,1,6/4,8,
{16}7/3,,,7/3,,,{8}4,3,2,5,6,
3,5,4,{16}6x,4x,{8}5x,{16}3,5,{8}4,{16}5,4,
6,,,6/2,,,{8}3h[8:1],{16}6h[16:3],,,4h[16:3],,,{8}5h[8:1],
{16}3h[16:3],,,6h[16:3],,,{8}4h[8:1],5h[8:1],2h[8:1],5h[8:1],3h[8:1],
{16}6h[16:3],,,4h[16:3],,,{8}7h[8:1],3h[8:1],6h[8:1],4,{16}5,4,
{8}5,3,4h[4:1],5,6,1,5/3-1-7-5-3-7[4:15],8,
{1}3b,
{4},,,,,,,,,,,,5,
5,5,5,
5,5,5,5,
{8}5,4,5,4,5,4,5,4,
5,3h[8:1],6h[8:1],4h[8:1],{4}5h[8:1],4w8[8:1],
4,{8}6b/2b,7/3,6/4,5/3,6/2,7/1,
8/1v4[8:1],{16}2>8[4:1],8,{4}1,{8},,1,1,
6/2,{16}3-8[8:1],5,{8}4-7[8:1],3,{4}4,{8}1>4[8:1],8,
7,6,5<8[8:1],4,{4}3,3-5-7-1-3[8:3],
4-8[8:1],4,{8}2,3,4V62[4:1],5,
6,7,8-4[8:1],1,{4}8/2h[4:1],{8}5,6,
{16}7qq5<8[4:1],,,1,{4}7q3[8:1],{8},,4-7[8:1],3,
2,1,8-3[8:1],7,6/8,E8/B7/B8,{4}B4/E4/B3,
{8}3,{16}5,4,6,5,6,4,{8}5,4/6,3/5,2/4,
{16}5,3,6,4,{8}6,{16}6,4,{8}5,5/3,6/4,7/5,
8/4,{16}1-5[8:1],8,{4}2,6<1[8:1],6/4,
{8}1/2-5[8:1],8/3,{4}2/1-6[8:1],1>4[8:1],7,
{8}6/4,{16}3-7[8:1],5,{4}4-8[8:1],{8},,7,7,
7/1,{16}2-6[8:1],8,{8}1-5[8:1],2x-4[8:1],1x-7[8:1],2x,{4}1x-5[8:1],
{8}8x,7,6-1[8:1],5,2x,3,4qq4b[4:1]*pp4b[4:1],5,
,,,,{2}A1/B8/B7/E1/E2/B2/B3/E4/A4/E7/A6/Ch[4:1],
E
