&title=Authentic symphony
&artist=ChouCho
&first=0.67
&des=GAHOU
&lv_5=13
&inote_5=(175)
{1},
{4},,,1w5[8:1],
{48}A1f,E1/E2/B1,C/B7/B3,B5,,,,,,,,,{8},,,5/3>5pp4[16:13],,8h[8:7],
{16},,,,,,,,,,,,D4,D3,D2,D1,
{8}6<1[8:1],,2,2>5[8:1],,8p4[8:1],,3p7[8:1],
{8},5<3qq4[12:13],,1,1,,,,
{16}1h[2:1],,,,,,,,{24}D5,A5,D6,A6,D7,A7,D8,A8,D1,A1,D2,A2,
{24}D3,A3,D4,A4,D5,A5,D6,A6,D7,A7,D8,A8,{4}D1,,
{8}B3,B5,B4,B6,,4>1[1:1],,E7,
{1},
{8}B6,B4,B5,B3,,5<8[1:1],,E3,
{1},
{8}E3,B5,B4,E7,,3>6[1:1],,B8,
{1},
{8}E7,B4,B5,E3,,6z2z6[8:7],,E2,
{8},E4,,E5,{16}D4,A3,D3,A2,D2,A1,D1,A8,
{8}B6,B4,B5,B3,,6<1[16:3],,1p4[4:3],
{1},
{8}B3,B5,B4,B6,,3>8[16:3],,8q5[4:3],
{1},
{8}E7,B4,B5,E3,,5<8[16:3],,1p4[4:3]*q6[4:3],
{1},
{8}E3,B5,B4,E7,,4p8[4:1],,8<5[4:1],
{8},6,,8h[4:1],{16}D4,A3,D3,A2,D2,A1,D1,A8,
{8}6xh[4:1],,4,5,4h[4:1]/2,,3,4,
{8}2>4b[8:1],2,6q2<7[8:3],,4,,3,,
{8}4/2h[4:1],,1>4[8:1],2,8xp4[8:1],,3,2h[8:5],
{8},4,5,6,7-4-6[16:3],3,7,,
{8}1xh[4:1],,4,3,5h[4:1]/6x,,7,5,
{8}6>4b[8:1],6,2p6<1[8:3],,4,,5,,
{8}3/8h[4:1],,1x<6[8:1],8,2xq6[8:1],,7,8h[2:1],
{8},5,4,3,2-6[8:1]/6,1,8>5[4:1],,
{8}8/7h[2:1],,,6,6V41[4:1],,8,8<2[2:1],
{8},E3,E4,E5,E6,E7,E8,,
{8}1/2h[2:1],,,3,3V58[4:1],,1,1>7[2:1],
{8},E7,E6,E5,E4,E3,E2,E1,
{4}8xh[8:1]/7h[8:1],8h[8:1]/7h[8:1],{8}7/8,6,5/4,3,
{4}1h[8:1]/2h[8:1],1h[8:1]/2h[8:1],{8}2/1,3,4/5,6,
{4}5h[8:1]/7h[8:1],5h[8:1]/7h[8:1],1h[8:1]/8h[8:1],1h[8:1]/8h[8:1],
{8}2/8,3,6/4,7,{16}1,8,2,7,4,5,3,6,
{2}1bh[2:1],{32}7,6,5,4,3,2,1,8,{4}7qq5[8:1]/3qq1[8:1],
{8}7b/3b`Cf,,6x-4[8:1]/2x,,6/3-7[8:1],2,5-8[8:1]/3,6,
{8}5/1<6[8:1],,1/2>5[8:1],,2/7-4[8:1],8,7/3pp4[24:7],,
{8}3bV14[16:5]/7h[4:1],,,8,8V64[4:1],,3,2,
{8}1-5[8:1],,8/1,,7-1[8:1]/4,6,7-3[8:1]/3-7[8:1],4,
{8}7/3,,1/5,7h[4:1]/3h[4:1],,,3,2/5,
{8}1>4[8:1]`4>1[8:1],,1/4,,8<5b[8:1]/5<8b[8:1],,8/5,,
{8}2-6[8:1]/4,,2/7-5[8:1],8,7/3-8[8:1],2,6/3,7b-1v4[4:1],
{4},,5<8b[8:1]/2>5b[8:1],5pp5b[16:5]*qq5b[16:5]/2,
{8}5bx,,,,4/2,1,7/8,6,
{8}5<3[4:1]/1,,3b,,4>6b[4:1],6,5b,,
{8}5-8[8:1],4,1,3-5[8:1],,3>5[8:3]/8-4[8:1],,8b/3b,
{8},,8,,7/4,3,5/2,4,
{8}8/1-5[8:1],,7/1,6V82[16:3],,2,3,4V28[16:3],
{8},7,6h[4:1],,1-3[8:1],2,6-2[8:1]/1,5,
{8}4-1[8:1]/6,3,8/4,7-4[8:1],,7/3V14<4b[8:7]*pp4>4b[8:7],,3b,
{1},
{8}5bpp4b[8:5]/4,,,4,,3,,3bqq4b[8:6],
{8},,7,7,,6<4q5[16:14],,6b,
{8},,,,C,,4,6,
{16}5/6>3[8:1],,7,,3,,2,2,1,,1w5[8:1]/8,,,,1,,
{8},7,1/6V48[4:1],,8,1,2,2V84[4:1],
{8},8,7,6,5/3,2,1-5[8:1]/8,7,1/6>7[4:5],
