&title=シルエット
&artist=KANA-BOON
&first=0
&des_5=はくこう
&des_6=KuSA
&des=はくこう
&lv_5=12+
&lv_6=13
&inote_5=(183)
{1},
{16}45,,,,7h[8:1],,5h[8:1],,6h[8:1],,2,,,,1,,
{16}7h[8:1],,5h[8:1],,6h[8:1],,3,4,3,4,3,4,2z6[24:5],,,,
{16},,,,8b,,,,3,,3>7[32:7],,,,6,,
{16}5-1[8:1],,,,1,,,,2,,2<6[32:7],,,,5,,
{16}4-8[8:1],,,,8,,,,1,,1>5[32:7],,,,6,,
{16}6,,7,,8h[4:1]/4,,,,5,,5^2[32:5],,,,8,,
{16}1-5[8:1],,,,71,,,,4,,4^1[32:5],,,,7,,
{16}8-4[8:1],,,,8^3[4:1]/6,,,,3^6[4:1],,,,6,,,,
{16}1,,,,47,,7,,3,,25,,2,,6,,
{16}8h[4:1]/4,,,,2-6[8:1],,,,8,,8,,7,5,7,5,
{16}7,,3,4,3-5[8:1],,,,6,,,,7,,7,,
{16}5-3[8:1],,,,7-5[8:1],,,,4,,,,3,,3,,
{16}5-7[8:1],,,,3-5[8:1],,,,6,,,,7,,7,,
{16}5-3[8:1],,,,7-5[8:1],,,,2h[4:1],,,,4h[4:1],,,,
{16}6h[4:1],,,,8^3[8:1],,,,2,,,,1-5[8:1],,5,,
{16}7,,,,8^3[8:1]/4,,,,2,,,,1-5[8:1],,5,,
{16}7,,,,8^3[8:1]/4,,,,2,,,,1-5[8:1],,5,,
{16}7-4[8:1],,,,3qq5[8:3],,,,5,,,,6,,,,
{16}37,,,,6b/4b,,7,,5,,6h[4:1],,,,7,,
{16}5,,6,,2,,2h[4:1],,4,,6,,3,,3h[4:1],,
{16}7,,5,,2,,2,,4,,3h[4:1],,,,2,,
{16}4,,3,,7,,7h[4:1],,5,,3,,6,,6h[4:1],,
{16}2,,4,,8-4[8:1],,,,2,,,,1^6[8:1],,5,,
{16}7,,,,8-4[8:1]/4,,,,2,,,,1^6[8:1],,5,,
{16}7,,,,8-4[8:1]/4,,,,2,,,,1^6[8:1],,5,,
{16}7,,,,84,,3,,7,,5,,62,,3,,
{16}6-3[8:1]/4,,57,,8/6bpp2[2:1],,,,1,,1,,,,,,
{16}3-6[8:1],,,,3bqq5[2:1],,,,7,,7,,,,,,
{16}6-3[8:1],,,,6bpp5[16:7],,,,2,,2,,,,,,
{16}3-6[8:1],,,,3b/6-3[8:1],,,,,,7,,7,,,,
{16}46,,,,8b-6[32:3]/2,,,,4-2[32:3],,,,7-5[32:3],,,,
{16}3-1[32:3],,,,6-4[32:3],,,,2-8[32:3],,,,5-3[32:3],,,,
{16}1,,,,4h[8:1],,8h[8:1],,5h[8:1],,1h[8:1],,6h[8:1],,2h[8:1],,
{16}7h[8:1],,3h[8:1],,8b,,,,6,5,6,5,7b/4b,,,,
{16},,,,2bq6[8:1]/4b,,,,1^6[8:1],,,,4,,3,,
{16}4-8[8:1]/2,,,,2-6[8:1]/4,,,,7,,7,,48,,,,
{16}2-4[48:5]/8-4[48:5],,,,8/2-6[8:1],,,,5^8[8:1],,,,1,,3,,
{16}1-6[48:5]/5-2[48:5],,,,1b^4[8:1]/5b,,,,6,,7,,8h[4:1],,,,
{16}6h[4:1],,,,4-1[8:1],,,,5,,,,8-5[8:1],,8,,
{16}1,,,,4-1[8:1]/3,,,,5,,,,8-5[8:1],,8,,
{16}1,,,,4-1[8:1]/3,,,,4-7[8:1]/5,,,,24,,3,,
{16}64,,5,,1-4[48:5]/4-7[48:5],,,,1b/4b,,,,5-2[48:5]/8-5[48:5],,,,
{16}5b/8b,,,,7bp3[8:1]/1b,,,,8^3[8:1],,,,5,,6,,
{16}5-1[8:1]/7,,,,7-3[8:1]/5,,,,2,,2,,51,,,,
{16}7^4[48:5]/1^4[48:5],,,,1/7-3[8:1],,,,4-1[8:1],,,,8,,6,,
{16}4-7[48:5]/8v3[48:5],,,,4b^1[8:1]/8b,,,,6,,5,,4h[4:1],,,,
{16}2h[4:1],,,,8-5[8:1],,,,2-6[8:1],,,,4-1[8:1],,4,,
{16}2-6[8:1],,,,8-5[8:1],,,,2-6[8:1],,,,4-1[8:1],,4,,
{16}2-6[8:1],,,,8-5[8:1],,,,2-6[8:1],,,,4,,4,,
{16}2,,8,,1-5[8:1]/7,,,,1bw5[8:1],,,,1b,,,,
{16}3,7,2,8,1b-5[8:1],,1,,6-1[32:3],,6,,3-7[8:1],,3,,
{16}8-3[32:3],,8,,5b>1[16:3],,5,,7,,6,,4b<8[16:3],,4,,
{16}2,,3,,4b-8[8:1],,4,,7-4[8:1],,7,,2-7[8:1],,2,,
{16}5-8[8:1],,5,,1b-5[8:1],,2,,7b-4[8:1],,8,,3b-1[32:3],,2,,
{16}7b^2[8:1]*^4[8:1],,,,7b,,,,5-8[8:1],,5,,2-6[8:1],,2,,
{16}1-4[8:1],,,,12,,,,5-8[8:1],,5,,2-6[8:1],,2,,
{16}1-4[8:1],,,,12,,,,5-8[8:1],,5,,2-6[8:1],,2,,
{16}1-4[8:1],,,,1b-6[8:1]/2,,,,5bw1[8:1]/1,,,,5b,,,,
{16}37,,,,6bpp5[2:1]/5,,,,4,,4,,,,3,,
{16}3^8[8:1],,,,3bqq5[2:1]/4,,,,5,,5,,,,7,,
{16}7^2[8:1],,,,7bpp3[2:1]/3,,,,4,,4,,,,2,,
{16}2-6[8:1],,,,2b/6-2[8:1],,,,5,,5,,,,37,,
{16}37,,,,8h[8:1]/2h[8:1],,,,34,,,,4/6h[8:1],,4,,
{16}26,,,,1h[8:1]/7h[8:1],,,,65,,,,5/3h[8:1],,5,,
{16}3,7,2,6,2-6[8:1],,4-7[32:3],,2,,4,,,,
{16}16,,7-3[8:1],,5-2[32:3],,7,,5,,,,38,,1-5[64:7],,
{16}4bw8[8:1],,1b,,4b,,,,,,,,,,,,,,
E
&inote_6=(183)
{1},
{8}18,,
6,5,7/4,3/6h[4:1],,2,3,4,2/5,
{16}6,3,6,4,6,5,{8}8h[8:4],,,,
{32}4b,73,26,15,{8}8-4[8:1],,1/8,2<7[8:1],,5-1[8:1]/2,,5/6-8[8:1],,
6/4-2[8:1],,5-1[8:1]/4,,5/3,,2-4[8:1]/8,,2/8-6[8:1],,1-5[8:1]/8,,
5V31[6:1],6,8,,7/8,1/6h[4:1],,4,3-5[8:1]/7-1[8:1],,3/7,,21,3h[4:1]/8,,
5,2-5[8:1]/6<1[8:1],,2/6,,3>8[8:1]/7-4[8:1],,7/3,,5/1,6/2,7<4[8:1]/3,,
3,2>5[8:1],,6,8<1[4:1],8,3b,,8,,
{16}7,8,7,8,7,,4,4,{8}5<1[4:1],,1s5[8:3],,2,2,2-7[8:1],,6,,
6/4,,3,3,5/3-6[8:1],,7,,7/5,,4,4,6/4-1[8:1],,8-6[8:1],,8-2[8:1],,8-4[8:1],,8,,
1h[4:1]/6>3[8:1],,,,2>5[8:1],1,2<7[8:1],,4-1[8:1],,5,,7<4[8:1],8,7>2[8:1],,
5-8[8:1],,4q5[16:5],,7h[4:1],,,,4bqq4[16:5]*pp4[16:5]/8b,,,,,,1/8,1/8,
2-5[8:1],3,8,8,7-1[8:1],6,4,4,3-8[8:1],2,8,7,6-4[8:1],5,1,2,
3>8[8:1],4,5,5,6<1[8:1],5,4,4,3,3,3/1h[8:1],3,3/5h[8:1],3,3-7[8:1]/7-4[8:1],,
3<6[8:1]/7>2[8:1],,,,3>8[8:1],5,3<6[8:1],,8-3[8:1]*-5[8:1],,8,,
6<1[8:1],4,6>3[8:1],,1-6[8:1]*-4[8:1],,1,,5h[4:1]/2bpp7[8:3],,,,6,,1/8,,
34,45,6b/5b,,
{24}2/1,3,4,{8}5-1[8:1],7,5/6,,8,1h[4:1]/7,,
{24}7,6,5,{8}4-8[8:1],2,3/4,,1,2/8h[4:1],,
{24}2,3,4,{8}5-1[8:1],7,5/6-3[8:1],,6/8,1w5[8:1],,1b,,3,
4,2/5,6,7>3[4:1]/4,,3<7[4:1],,7>3[4:1],,3<7[4:1],,7,,2-6[8:1],,1/2,,
7/5-1[8:1],7,7-4[8:1]/5,,7/2-6[8:1],,2/8-3[8:1],,4-8[8:1]/8,,4/5<8[8:1]*>2[8:1],,
5b,,{16}1-5[8:1],7,3,5,1b,,,,{8},,
{24}1,2,3-8[16:1],4,,,7,6,5,,,,1,2,3-8[16:1],4,,,7,6,5,,,,
1,2,3-7[8:1],4,,,7>4[6:1],6,5,,,,6b-2[10:1],,,,,,{16},,,,
1-6[8:1]/4,,4,,1/3,,2,,5/8-3[8:1],,5,,6/8,,7,,
1<6[8:1]/4>1[8:1],,,,1/4pp5[6:1],,,,,,,,{24}1w5[8:1],,,,,,1b,,,,,,
3/7h[4:1],,,,,,4-8[8:1],3,2,1,,,4>1[8:1],,,,,,4/7,,,,,,2h[4:1]/6,,,,,,
5-1[8:1],6,7,8,,,5<8[8:1],,,,,,5/2,,,,,,
{16}
3-1[10:1]/7-1[10:1],,,,7-5[10:1]/3-5[10:1],,,,7/3,,,,
2,6,2,6,3,7,3,7,4,8,4,8,5b/1b,,,,
{24}8,7,6-1[16:1],5,,,2,3,4,,,,8,7,6-1[16:1],5,,,2,3,4,,,,
8,7,6-2[8:1],5,,,2<5[6:1],3,4,,,,3b-7[10:1],,,,,,{16},,,,
8-3[8:1]/5,,5,,8/6,,7,,4/1-6[8:1],,4,,3/1,,2,,
8>3[8:1]/5<8[8:1],,,,8q5[16:3]/5,,,,,,,,{24}4w8[8:1],,,,,,4b,,,,,,
6/2h[4:1],,,,,,8-4[8:1],7,6,5,,,8<5[8:1],,,,,,8/3,,,,,,6h[4:1]/2,,,,,,
1-5[8:1],2,3,4,,,1>4[8:1],,,,,,1/6,,,,,,
{16}
2-8[10:1]/6-4[10:1],,,,6-8[10:1]/2-4[10:1],,,,2/6,,,,
5,1,5,1,4,8,4,8,3,7,3,7,{24}2,1,8,7,6,5,
{24}4b-8[10:1],,,,,,7,,,7,,,
{16}
6,1,6,1,5,2,5,2,4,3,4,3,5,4,5,4,6,5,6,5,
6,5,6,5,7b,5,7,5,8,5,8,5,1,5,1,5,
2<7[8:1],5,2,5,2b>5[8:1],,,,2b-6[8:1],,,,2b,,,,
8qq5[16:5]/4qq1[16:5],,,,4b/8b,,,,,,,,
{24}
16,2,3,4,,,1-4[8:1],8,7,6,,,1-6[8:1],,,,,,12,,,,,,
87,1,2,3,,,8-3[8:1],7,6,5,,,8-5[8:1],,,,,,
{16}
1/8<1[4:1],,,,8b-4[8:1],,,,
8,,,,3,6,4,5,2,7,4,5,1,8,1,8,2b/7b,,,,
{24}7/8,6,5,{8}4-8[8:1],2,4/3^8[8:1],,73,6,6,
{24}2,3,4,{8}5-1[8:1],7,5/6^1[8:1],,26,3,3,
{24}7,6,5,{8}4-8[8:1],2,4/3^8[8:1],,73,6,6,
8w4[8:1],,8b,,6,5,8/4,37,2-5[8:1]/6,6,62,6,7/1-4[8:1],7,71,7,
{16}8,4,8,4,8,4,8,4,8,4,7,3,6,2,5,1,4-8[8:1],,2-5[8:1],,4,,2,,7,,4,,
6-1[8:1],,3-7[8:1],,6,,3,,8,,5,,46,,2/5,,3/7,,{32}15,26,37,48,{8}1b/5b,,,,
