&title=アタシのドレス
&artist=ねぐせ。
&first=0.06
&des=3A<<
&lv_5=13
&inote_5=(161)
{1},
{4}2h[4:1]/4h[4:1],,5h[4:1]/7h[4:1],,
{16}1h[4:1]/8,,,,5,,5h[4:1],,,,2,,3,,4,,
{16}5/6h[4:1],,,,2,,62,,37,,37,,48,,48,,
{1}5>1[4:2]/1<5[4:2],
{16}3-8[8:1]/4,,3h[4:1],,,,,,6p2[8:1]/5,,6h[4:1],,,,,,
{16}18,,27,,,,3,4,2,,8,,1,,7h[8:1],,
{16}1-5[8:1],,2,,1/4-8[8:1],,,,3,,,,2,,2qq3[4:1],,
{16},,6,,5,,4h[4:1],,,,1,,8,,2h[8:1],,
{16}8-4[8:1],,7,,8/5-1[8:1],,,,6,,,,8,,8v7[8:1],,
{16},,3q7[8:1]*<7[8:1],,3,,,,,,8h[8:1],,4h[8:1],,6h[8:1],,
{16}5-8[8:1],,3,,1^6[8:1]/5,,,,2,,,,35,,2,,
{16}46,,7-3[8:1],,3,,3,,,,1h[8:1],,5h[8:1],,3h[8:1],,
{16}4-1[8:1],,6,,8^3[8:1]/4,,,,7,,,,62,,6-1[8:1]/2-5[8:1],,
{16},,6-3[8:1]/2-7[8:1],,,,,,,,24,,35,,46,,
{16}5b/7b,,,,8/2V48[4:1],,,,5,,5,,6-2[8:1],,,,
{16}4-8[8:1],,,,5,,5,,1,,24,,35,,46,,
{16}5b/7b,,,,1/7V51[4:1],,,,4,,4,,3-7[8:1],,,,
{16}8-4[8:1],,,,2,,2,,5,,24,,35,,46,,
{16}5b/7b,,,,2-7[8:1]/8,,,,5,,5-8[8:1],,,,1-4[8:1],,
{16},,5-8[8:1],,,,1,,,,24,,35,,46,,
{16}5b/7b,,,,7-3[8:1]/1,,,,4,,4-8[8:1],,,,7^2[8:1],,
{16},,4-8[8:1],,,,7,,,,24,,35,,46,,
{16}5b/7b,,,,8h[8:1],,1,,7h[8:1],,8,,6h[8:1],,5-2[8:1],,
{16},,1-4[8:1],,,,7,,,,24,,35,,46,,
{16}5b/7b,,,,4h[4:1]/8,,,,5,,3,,4,,2-4[8:1],,
{16},,5-1[8:1],,,,8,,,,24,,35,,46,,
{16}5b/7b,,,,1h[8:1],,8,,2h[8:1],,1,,3h[8:1],,4-7[8:1],,
{16},,8-5[8:1],,,,2,,,,24,,35,,46,,
{16}5b/7b,,4h[8:1],,7h[8:1],,3h[8:1],,6h[8:1],,2h[8:1],,5h[8:1],,1q5[8:1],,
{16},,6,,,,8z4[4:1],,,,,,,,,,
{16}3-8[8:1],,,,34,,,,6-1[8:1],,,,56,,,,
{16}2-5[8:1],,,,21,,,,7-4[8:1],,,,87,,,,
{16}3b,,24,,,,6b,,57,,,,8bq1[16:5]/1b,,27,,
{16},,5,,5,,84,,84,,37,,37,,6h[8:7]/2,,
{16},,,,,,,,,,,,3-1[8:1],,,,
{16}5b-7[8:1]/3b,,,,3b-1[8:1]/5b,,,,3b/5b,,,,6,,7,,
{16}8^5[8:1]/4,,,,1,,,,8^3[8:1]/4,,,,7,,,,
{32}3b/7b,48,,,,,,,3b/7b,48,,,,,,,3b/7b,48,,,,,,,2-4[8:1],,,,4-8[8:1],,,,
{16}2,,,,7-5[8:1],,5-1[8:1],,7,,,,2,,,,
{32}2b^7[8:1],,,,,,,,6b<3[16:3],,,,,,,,4b>5[16:4],,,,,,,,8-4[8:1],,,,,,,,
{16}8,,,,1,,2^5[8:1],,8,,1h[4:1],,,,5,,
{16}5-1[8:1],,6,,7,,,,3,4,2,5,1,6,8h[4:1],,
{16},,6,5,7,,3,4,2,,7,5,6-8[8:1],,,,
{16}4b-2[8:1]/6b,,,,6b-8[8:1]/4b,,,,6b/4b,,,,3,,2,,
{16}1^4[8:1]/5,,,,1^6[8:1]/8,,,,1w5[8:1]/2,,,,1,,,,
{32}3b/7b,48,,,,,,,3b/7b,48,,,,,,,3b/7b,48,,,,,,,34,,,,1,,,,
{16}56,,8,,27,,3p2[4:1]/6q7[4:1],,18,,,,,,,,
{16}3-6[8:1],,,,,,,,5w1[8:1],,,,,,,,
{16}3qq5[4:1]/6pp4[4:1],,,,,,,,,,1,8,1,8,1,,
{16}2-5[8:1]/7,,,,6-1[8:1]/2,,,,36,,,,4p2[8:3],,4,,
{16},,8,,7,,6,,{32}1w5[8:1],2,3,4,5,6,7,8,1,,,,,,,,
{16}1-5[8:1]/2-5[8:1],,38,,12,,,,8-4[8:1]/7-4[8:1],,61,,87,,,,1
{16}1^4[8:1],,5^8[8:1],,1,,5,,,,3,4,3-6[8:1],,,,
{16}7^2[8:1],,,,37,,,,4h[8:1],,5,,3h[8:1],,4,,
{16}2b-6[8:1],,,,,,,,,,,,,,,,
{16}35,,2,,1-4[8:1],,,,6,,,,3,,3qq4[4:1],,
{16},,8,,7,,6,,,,1,,24,,35,,
{16}64,,7,,8-5[8:1],,,,3^8[8:1],,,,4,,4,,
{16},,26,,2-5[8:1]/6-1[8:1],,48,,2b/6b,,,,,,,,
{16},,,,,,,,,,,,,,,,
{16},,,,,,,,,,,,,,,,
