&title=Light Shine
&artist=Ryu☆
&first=0
&des=谱面-200号
&lv_5=13
&inote_5=(140){1},
{8}3,4,2,5,1,6,{16}8b,8b,8b,8b,
1>4[8:1],,4,,1,,6,,7-5[8:1],,,4,7,,3,,2<3[2:1],,,7,7,,6,,
{2}5h[2:1],
{8}2>5[8:1],5,2,7,8-6[8:1],{16},1,8,,3,,2h[8:7],,,,,,6,7,8h[8:3],,,,,,,,
3/7,,2/6,,1,5,2,6,3h[8:1],,4h[8:1],,5h[8:1],,6-3[8:1],,,,
{8}2-7[8:1],1,2,6,5,{16}7,7,8,8,
{8}1<6[8:1],1,3-5[8:1],3,6>8[4:1],7,8>6[4:1],,6>8[4:1],,8>6[4:1],,7h[2:1],,,,
5>2[8:1],5,6<1[8:1],6,1>4[8:1],2,3h[4:1],,5<3[4:1],,3>5[4:1],,4h[2:1],,,,
8<5[8:1],8,3-5[8:1],3,6>8[4:1],7,8>6[4:1],,6>8[4:1],,8>6[4:1],,7h[2:1],,,,
8>3[8:1],8,7<4[8:1],7,4>1[8:1],3,2h[4:1],,8<2[4:1],,2>8[4:1],,8<2[4:1],,1b,,
{16}8,,7,,1,,6,6,2,,5,,4b,4b,4b,4b,
3,,4,,2h[16:4]/5,,,1,1,,2,,3/8h[4:1],,,,5,,6,,4/7h[4:1],,,8,8,,7,,1h[4:1]/6,,,,
4,,3,,2h[16:3]/5,,,1,2,,1,,3/8h[4:1],,,,5,,6,,4/7h[16:3],,,8,7,,8,,1/6,,7,,
5,,6,,4/7h[16:4],,,2,2,,1,,3h[4:1]/8,,,,7,,8,,1/6h[4:1],,,3,3,,4,,2h[4:1]/5,,,,
7,,8,,1/6h[16:3],,,5,6,,4,,3h[4:1]/8,,,,
4,,3,,5<8[8:1],,3,3,5>2[8:1],,4,,5,,1,,
8h[4:3],,7,,1,,6,,2,,5,,4,3,2,1,
8h[4:3]/7,,1,,6,,2,,5,,3,,4,5,6,7,
8h[4:3]/1,,7,,6,,2,,5,,3,,4,3,2,1,
8h[4:3]/7,,1,,6,,2,,5,,3,,4,5,6,7,
8/1h[4:3],,2,,7,,3,,6,,4,,5,6,7,8,
1h[4:3]/2,,8,,3,,7,,4,,6,,5,4,3,2,1/8h[4:3],,7,,2,,6,,3,,5,,
4,3,2,1,
8h[4:3]/7,,1,,6,,2,,5,,3,,4,5,6,7,
8,,4,,7,,3,3,6,,2,,5b,5b,5b,5b,
{8}1<6[8:1],3-1[8:1],1>6[4:1],3,6>8[4:1],7,8>6[4:1],,6>8[4:1],,8>6[4:1],,7h[2:1],,,,
5>2[8:1],8<5[8:1],5-1[8:1],8,1>4[8:1],2,3h[4:1],,5<3[4:1],,3>5[4:1],,4h[2:1],,,,
8<5[8:1],2-8[8:1],8>6[4:1],2,6>8[4:1],7,8>6[4:1],,6>8[4:1],,8>6[4:1],,7h[2:1],,,,
8>3[8:1],5<8[8:1],8-4[8:1],5,4>1[8:1],3,2h[4:1],,8<2[4:1],,2>8[4:1],,8<2[4:1],,1b,,
,8,7,1,6,2,{16}5,5,4,4,
3,,2,,4,,1,,5<8[8:1],,,4,4,,3,,8<5[8:1],,,1,1,,2,,3h[2:1],,,,,,,,
2,,3,,1,,4,,8<5[8:1],,,4,4,,3,,2>6[4:1],,,,6>2[4:1],,,,8h[2:1],,,,,,,,
3,,1,,2,2,1,1,8>3[8:1],,7,,6,,7,7,5,,6,,7,7,8,8,1<6[8:1],,2,,3,,2,2,
4-1[8:1],,5,,4/6,,,5,5-8[8:1],,4,,3/5,,4,4,5h[4:1],,6,,4,5,,5,4h[4:1],,3,,2,2,4,4,
{8}5-8[8:1],7,5/6,4,5-2[8:1],3,4/5,6,5-1[8:1],7,5/6,4,
8>3[8:1]/4<7[8:1],1,4/8,,
{8}4-1[8:1],2,4/3,5,4-7[8:1],6,5/4,3,
4<7[8:1]/8>3[8:1],,4p8[8:1]/8p4[8:1],,4<7[8:1]/8>3[8:1],,4b/8b,,
{8}4-1[8:1],2,4/3,5,4-7[8:1],6,5/4,3,4-8[8:1],2,4/3,5,
1<6[8:1]/5>2[8:1],8,5/1,,
{8}5-8[8:1],7,5/6,4,5-2[8:1],3,4/5,{16}6,6,
{8}5>2[8:1]/1<6[8:1],,5bq1[8:1]/1bq5[8:1],,5b/1b,,{16}4>1[8:1]/8<5[8:1],,4/8,4/8,4b/8b,
