&title=天使の帰郷(Full ver.)
&artist=Asatsumei/L4hee
&first=0.031
&des=Anyaの帰郷
&des_5=Anyaの帰郷
&lv_5=14+
&inote_5=(180){4},,,,,,,,,,,,,,,,,{32},,,,,,,{2}3h[4:3],
{4},4h[4:3],,,{1}5h[4:3],
{2},6h[4:3],
{4},5h[4:3],,,{1}4h[4:3],
{8},,,,3,,,4,
,,{4}5,{8},6<3[8:13],,,,,,,,,,,,,,,{2}1,
,,B8,
B2,
B6,{8}B4,,,E6,
,,{4}E7,{8},7x>2[8:11],,,{4}4xh[2:1],
,,3xh[2:1],
{8},,,,6,,,7,
,,{4}8,{8},B8,,,E7,
,,E6,,,{4}E5,
,,{2}4/5<4>5[2:11],
{1},,,,,{4},,{8}B8/E8,
,,B3/E3,
,,{4}B6/B5,{8},B1/E2,,,{4}6,
3,5,4,
{8}6,5,4,3,{2}6qq2[4:9]/2qq6[4:9],
{1},,{4},{16},,,{32},5h[16:17],
,,,,,,,,,,,,,,,,,4>8[0.6667##1.3333],
{1},{16},,,{32},7,
,,,,,,,7-4[0.6667##0.6667],,,,,,,,,,,,,,,,4,
,,,,,,,3,,,,,,,,,,,,,,2h[8:5],,,,,,,,4h[8:3],
{1},{4},{32},5,
,,,5,,,,5/4>2qq1[0.6667##1.9167],{4},,{16},,{32},5,
,,,,,,,6,,,,,,,,7,,,,,,,,6,
,,,,,,,6h[2:1],,,,,,,,,,,,,,,,5-8[0.6667##0.5],,,,,,,,4,
,,,,,,,3,,,,,,,,,,,,,,,,,,5,,,,,,,,3/6,
,,,,,5,,,,4,,,,4qq2<8[0.6667##1],,,,,,,,,,,,,,,,6,
,,,,,,,7qq5>3[0.6667##1],,,,,,,,,,,,,,,,,,,,3,,,,3qq1-7[0.6667##0.8333],
,,,,,2,,,,,,1,,,,1,,,,,,,,,,,,5,,,,4q8[0.6667##0.3333],
,,,,,,,3h[2:1],{4},,{16},,,{32},3,
,,,,,,,5h[16:13]/2h[16:13],{1},{32},1,
,,,,,,,1h[4:1],,,,,,,,2h[4:1],,,,,,,,3h[4:1],
,,,,,,,4h[4:1],,,,,,,,5h[1:1],{4},,,{16},,,{32},8<5[0.6667##0.6667],
,,,,,,,,,,,,,,,5w1[0.6667##1.3333],
{1},{4},,,{16},,,{32},7h[1:1],
,,,,,,,,,,,,,,,,,,,5,,,,4,,,,,,,,2h[16:11],
,,,,,,,,,,,,,,,,,5,,,,6,,,,,,,,8h[3:2]/1h[48:35],
{1},{16},,,{32},7/2,
,,,,,,,6,,,,,,,,5,,,,5/4h[8:7],{4},,{16},,,{32},6h[4:3],
,,,,,,,,,,,,,,,5,
,,,,,,,4,,,,4/6,,,,,,,,5,,,,5/3h[8:1],,,,,,,,6,
,,,5,,,,4,,,,3h[4:1],,,,,,,,,,,,,,,,5/4,
,,,,,,,6/3,,,,6h[4:1]/3h[8:3],,,,,,,,,,,,,,,,7,,,,7/5<8[0.6667##0.5],
,,,,,,,3,,,,5/3,,,,,,,,,,,,,,,,B4,,,,B8,
,,,B3,,,,B7,,,,B2,,,,B6,,,,,,,,1xh[16:9],,,,,,,,,,,,,,,,,,7xh[16:11],
,,,,,,,,,,,,,6,,,,,,,,5,
,,,,,4,,,,,,,,3xh[16:13],,,,,,,,5,,,,5,,,,5,,,,,,,,,,,,,,,,6x,
,2/5x,1,8z4>2[0.6667##1.25],{1},{4},{16},,{32},Cfh[32:17],
{4},,{64}1bx,,,2,,,{32}3,{64},4,,,,,,,,,,,,,,,8bx/B2f,,,7,,,{32}6,
{64},5,,,,,,,,,,,,,,,1bx/8bx,,,7/2,,,{32}6/3,{64},5pp8[64:61]/4qq1[64:61],{4},,,{16},,,{32}Cf,
,,,,,,,,,,,,,,,,{8}2x,
{16},2xh[16:13],{48},,,,,,{24}E7,B6,{6}B5,E8,{48},{16}B5,,,{8}E7,
{16},8xh[16:3],{48},,,,,,{24}E3,B2,{6}B1,7x/D2,{48},{16}D3,{8}7x,D4,
7x,E5,7x/C,E1,{16}2x/D8,,,D7,{8}2x,D6,
2x,E1,2x/C,E5,{16}6b,6h[8:1],,4,{8}4h[8:1],7,
{16}3,3h[8:1],,5,{8}5h[8:1],2,{16}7b,7h[8:1],,5,{8}5h[8:1],1,
{16}2,2h[8:1],,4,{8}4h[8:1],8,1b/7b,{32}8xh[32:1],,,8xh[32:1],,,{16}8xh[32:1],{32},8xh[32:1],,,{2}8xz4[4:1],
{4}2x,3x,
{96}4x-8[8:1],{4},{96}Cf,{16},,,{64},,{96},{16}2h[16:1]/1h[16:1],,,2h[16:1]/1h[16:1],,,{8}3h[16:1]/2-5-2[4:1],
,5,{16},,,,7h[16:1]/8h[16:1],,,7h[16:1]/8h[16:1],,,{8}6h[16:1]/7-4-7[4:1],
,4,{16},,,,1h[16:1]/2h[16:1],,,2h[16:1]/3h[16:1],,,{8}4h[16:1]/3V51[16:3],
,5,{16},,,,8h[16:1]/7h[16:1],,,7h[16:1]/6h[16:1],,,{8}5h[16:1]/6-4-7[16:3],
,4,,,{2}1s5[8:1]/8z4[8:1],
{1}6bxh[32:41]/3bx-6-1-4-7-2-5b[32:33],
{2},2bp5b[8:1]/8b<5b[8:1],
{4}3b-6[8:1],3b/5h[8:3],{8}7,8-5[8:1],1,2/8,
,Cfh[4:1],{16},,,,7h[16:1]/1h[16:1],,,5h[16:1]/3h[16:1],,,{8}7-4-1[4:1]/1-4-7[4:1],
{2}7/1,{16}2h[16:1]/8h[16:1],,,4h[16:1]/6h[16:1],,,{8}2-5-8[4:1]/8-5-2[4:1],
{2}8/2,{4}1b,{16}3h[16:1]/8h[16:1],,,6v1[32:5]/4v1[32:5],
,,{8}5/7,,,{4}7/8-5[8:1],8/1-4[8:1],
2/1-5[8:1],1w5[8:1],{32},,,,,,,,A5,B5,C,B1,{8}A1,
{1}2bxh[4:5]/8bx-2-7-3-6-4b[1:1],
{4},,8b/1b,{8}2,2,
6,6,3,3,{16}7,5,6,5,{8}6,{16}2,4,
3,4,{8}3,{16}6>1b[4:11]/3<8b[4:11],5,{8}4,{2}6bx/3bx,
{4},,,,,,,,,,E8/D8/B7/B8/A8,
E6/B6/B5/A5/D6,
B3/A3/E4/B4/D4,A1/D2/E2/B1/B2,{8}8h[8:1],{16}5,5,{8}8h[8:1],2x,
7h[8:1],{16}4,4,{8}7h[8:1],1x,6h[8:1],{16}3,3,{8}6h[8:1],1x,
5h[8:1],{16}2,2,{8}5h[8:1],8x,{16}5,1,5,1,6,2,6,2,
7,3,7,3,8-4[8:1],4,8,4,{2}8qq7[8:1]*pp1[8:1],
{16}B1,B7,B3,B5,{4}C,8/1,{16}6-2[8:1],6,2-7[8:1],2,
,,,,,,{8}3,{16}5,4,{8}6h[8:1],{16}4,5,{8}3h[8:1],
{16}4,4,4,4,{8}4,3/5,{4}2/6,{16}3-7[8:1],3,7-2[8:1],7,
,,,,{4}A6/E6/D6,4/8-6[8:1],8/5-1[8:1],
5/2-4[8:1],{8}2,1,{4}8/1v6v1[16:3],7,
{16}8,8,8,8,{4}8v3[8:1],{8}8/7,7,{16}7,6,5,4,
2,3,4,5,{4}7b-5[8:1]*-3[8:1],7,{16}1,2,3,4,
7,6,5,4,7,6,5,4,{8}8xh[8:1],{16}2,3,{8}4xh[8:1],{16}8,7,
{4}6x-4>2b[4:1],2b-5<7[4:1],B8/B1/E1f,1bx,
{16}8x/7x,1,2,3,7,5x,{8}6h[8:1],{16}2,4x,{8}3h[8:1],{16}5,5,5-7-5[4:1],5,
5-2-5[4:1],5,{8}5,,,,,B3/B6,B7/B2,
{12}8x/1v3b[16:1],7x,6x,5bx-8b[12:1],{48},,,,,{16}2b-5b[16:1],,,{8}7b-4b[16:1],{16},1b-6b[16:1],,,{4}8b<2[4:1],
2>8b[4:1],8b,{8}2,1,
7/3,1,6/4,8,5/3,2,6/4,7,
4/3,2,6/5,7,8/1h[8:3],8,8x,8,
2/7h[8:3],2,2x,2,{16}1,5,1,5,2x,6,2qq3[4:1],6qq7[4:1],
2,6,,,,,,,{8}Cf,{16}8,7,{8}6h[4:1],4,
{16}2,3,{8}4h[8:1],8,8,{16}7/3,6/2,{8}5/1,E5/E1,{16}B2,B7,
B4,B5,B1,B8,{8}Ch[8:1],E7,{4}7xw3[8:1],C,
{2}1w5[8:1],{16}7x,6,5,4,2x,3,4,5,
3x,4,5,6,8x,1,2,3,8x,7,6,5,{4}8b/4,
{16}8x,1,2,8x/3x,7,6,{8}5/4>1[8:1],,5,{16}7,6,8,1,
6,5,1,2,5,4,2,3,{2}4bpp6[8:1]*qq2[8:1],
7b-3[8:1]/1b-5[8:1],{4}4b>5b[4:3],Cfh[8:1],
,,{2}8xh[4:1],
{16}7x/1x,,,6x,,,{8}6x,{16}2x/8x,,,3x,,,{8}3x,
{2}E8/C/E4/E2/E6,{16}2x/8x<3b[0.6667##0.5],,,8xh[16:3]/2xh[16:3],,,,1x/7x,
{8}8bx/6x,,,8,{16}1s5b[0.6667##0.1667],,,8,8,2,{8}2,
{4}8b/1b,{16}6,7,{8}8,8<5[16:3],,,3>8[16:3],
,,{4}4-7[8:1],{8},2-5[8:1],,,{4}6xh[8:1],
{8}5x/6xh[8:1],5x,6x/5x-3-6[4:1],,,8-5-7[4:1],
,,{4}4-1-3[4:1],{8},6-3-8[8:3],,,{4}8-5[4:1],
5V36[2:1],{2}1b,
{1}Ch[1:1],
{16}A7,E7,E6,A5,A2,E3,E4,A4,6x,5,6,5x,6x,5x,6x,5,
6x,5,6,5x,6x,5x,6x,5,{4}6-2[8:1],7-3[8:1],
8w4b[8:1],8`Cf,6h[8:1]/1-5[8:1],6h[8:1],
6h[8:1]/2-4[8:1],6h[8:1],{8}7h[8:1]/1-4[8:1],2,{4}7h[8:1],
{8}7h[8:1]/2-4[8:1],3,{4}7h[8:1],{8}1/6h[8:1],1,{4}6h[8:1]/1-3[8:1],
6h[8:1]/1-5[8:1],6h[8:1],{16}7h[8:1]/4h[8:1],,,6h[8:1]/1h[8:1],,,{8}2h[16:1]/8h[16:1],
{2}8q5[8:1]/2p5[8:1],{4}3h[8:1]/8-4[8:1],3h[8:1],
3h[8:1]/7-5[8:1],3h[8:1],{8}2h[8:1]/8-5[8:1],7,{4}2h[8:1],
{8}2h[8:1]/7-5[8:1],6,{4}2h[8:1],{8}8/3h[8:1],8,{4}3h[8:1]/8-6[8:1],
3h[8:1]/8-4[8:1],3h[8:1],{16}2,3,4,5,2,3,4,5,
7,6,5,4,7,6,5,4,{4}Cfh[1:1],B5,
B6,B7,{8}B8,{32}A7,E7,{16}B6,{32}A2,E3,{16}B3,,,{8}8h[16:1]/1h[16:1],
8h[16:1]/1h[16:1],{4}8b/1b,{16}6h[16:1],5h[16:1],6h[16:1],5q2[8:1],7h[16:1],5h[16:1],{8}7,
,8,{16}8bh[16:1],1h[16:1],{8}8h[16:1],{16}1/7,2,3,4,8,1,2,3,
7,8,1,2,6,7,8,1,{2}6-3[8:1]/2-7[8:1],
{4}8bh[8:1]/1bh[8:1],7bxh[8:1]/2bxh[8:1],{2}6bxh[4:1]/1bv4b[0.6667##0.3333],
{32}7b/1bv6b[0.6667##0.3333],,,,,8x,,,,,{16}2x,{32},2x,,,3bx/1bv4b[0.6667##0.3333],,,3,,,,2xh[64:3],,,{16}8,{32},8,,,{8}7x/1b,
{16}E7,B6,B5,E5,,,{4}6h[16:3]/2h[16:3],7h[4:1]/3h[8:1],
{16},8h[16:49]/4qq3qq2qq1qq8qq7qq6qq5qq4[0.6667##13.5833],{1},,,,,,,,,{4},,{32},{16},E7,
,,,,,,{8}B8,
,,,,{4}C,
,4xh[8:51],{8},,,,,,,B8/E8/B7,
,,,,{2}E6/A6/D6,
B3/E4/D4,
{8},E1/B1/A1,{1},{4},,{16},,{32},B4,
,,,,,,,,B5,
,,,,,,,,{4}B6,B7,
B8,B1,{8},C,,,,,,,,,,,,,6x,
4x,{2}5xqq8[8:9],
{8},,,B4,,,,,,,{4}3h[8:1],
{16},4h,,,,,,,{8}5,
6,7,8,1,2,{16}3,4,{8}5,
{16}6h[16:3],,,7h[16:3],,,{8}8q1[4:5],,,{4}C,
{16},,,,,5,,,,,{8}4,,3,
,7v6-4[2:1],{16}2,,,1,,,{8}8,{16},7,,,,6,
,,{4}5pp7-1[8:5],{8},,,1>2pp4[4:3],
,,,,,4>2qq7[16:25],,,,,,3,
{16},,,,,,,,,,,3h,
,,,,,,,,,7/5h,,,,,,,,,,2h,
,,,,,,,,,1/8h,
,,,,,,,,,,,3h[2:3]/6h[2:3],{1},,{4},,{16},5h,
,,,,,,,,{8}4/3h,
,,,,7h,{16},,,,,,,1h,
,,,,,,,,,,{8}8p3q8[8:17]/1q6p1[8:17],
{1},,{4},,,{16},,,{32},A6,
,E6,,B5,,B4,,E4,,A3,{1},{4},,,{16},{8}3-1[8:5],
{16},,,,,,,,,,,,4-8[16:11],
,,,,,,,,,,,,,,5-7[8:5],
,,,,,,,,,,,,,8v1[16:11],,,,,,,,,,,,,,,{4}4v5[16:11],
{16},,,,,,,,,,,A2,E2,B1,B8,E8,
{1}A7,
{16},,,,,,,4/5,,,,,,,,,{8}6/3,
,,,,7h[16:13],{16},,,4x,
5x,6x,8x,1x,2x,3x,4x,5x,6x,7x,8xh[16:7],6x,5x,4x,3x,2x,
{8}1x,{16}7x,6x,5x,4x,3x,2x,{2}1xw5[2:1],
{16},,,,,,,3x,2x,1x,{8}8x>4[2:1],{16},,,,,,,,,8-5[4:1],
,8,,,,,,B2,,B3,
,3/5,,4,,5,,6h[4:1]/4h[4:1],,,,,,3/5-8[4:1],,3/5,
,,,,,1-4[4:1],,1,,,,6,,6,,6,
,7,,7,,8,,8,,1/2,,3,,3,,7/8,
,6,,6,,4/3,,2h[16:5],,,,4,5,6h[16:3],,,5,
4,{8}3h[16:1],{24}B8,B7,B6,B5,B1,B2,B3,B4,{12}C,{48},,,,,,,{16}3h[4:1],,,,4,
,5,,6/B4,,7,,5,,6,,7/C,,8,
,1,,1,,2,3,4/8,7,6h[4:1],,4,3,2>5[16:3],{32},,,,,,,,6x,
,7x,,8x,,,,,,5,,6,,5,,6,,4,,5,,4,,5,,3,
,4,,3,,4,,3,,5,,2,,4,,3,,5,,2h[8:3],,,,,,,,,,,,7x,
6x,5x,,3,,4,,3,,,,2,,1,,2,,1,,2,,,,7,,8,,7,,8,,7,
,6,,5/1,,,,1,,2,,3/7,,6,,5h[4:1],,,,,,,,3,,4,,2h[4:1],,,,,,,,6,
,4,,7h[4:1],{16},,,{64},,{96},{48}3,{96},,,{32}5,,1h[16:3],,,,,,,,7,,8,,7,
,,,6b,,,,2,,2,,8x,{96},,,,,,,,{24}8x/1x,,,7b/2,6,5,4,3,2,1,8,7,6x/2b,
3,4,5,6,7,8,1,2,{3}7b<5pp8b[96:109]/3>1pp4b[96:109],{4},,,{16},{48}Cf,
{4},,{16},{64},,{32}8/C,
,,,,,,,8/C,,,,,,,,6,,,,,,,,6,,,,,,,,5/3,
,,,,,,,5/3,,,,,,,,2,,,,,,,,2,,,,,,,,1/C,
,,,,,,,1/C,,,,,,,,7,,,,,,,,7,,,,,,,,5/3,
,,,,,,,5/3,,,,,,,,2b/6b,,,,5pp8[2:1],,4,,5,,,,4,
,,,3,,,,3,,,,2,,,,2,,,,1pp4[8:5],,8,,1,,,,7,,,,7,
,,,6,,,,6,,,,5,,,,5,,,,6,,4,,7,,3,,8,,2,,7,
,1,,6,,2,,5,,3,,4,,2,,5<7-2b[8:3],,1>3-6b[16:5],{4},,,{32},Cf/E3/E7,
,,,,,,,6/4,,,,2,,8,,2,,,,3/7,
,,,2-5[8:1],,8,,1v6[8:1],,,,2,,,,1,,,,2,,,,7,,1,,7,,,,2/6,
,,,7-4[8:1],,,,1-3[8:1],,,,7,,,,1,,,,7,,,,4,,6,,4,,,,3/7,
,,,5x-1b[8:1],,,,4x-8b[8:1],,,,5x,,,,4x,,,,6,,,,1,,7,,1,,,,2/6,
,,,7-4[8:1],,,,1q5[8:1],,,,7,,,,1,,,,7,,,,6,,4,,6,,,,7/3,
,,,7-4[8:1],,1,,8v3[8:1],,,,7,,,,8,,,,7,,,,2,,8,,2,,,,7/3,
,,,2-5[8:1],,,,8-6[8:1],,,,2,,,,8,,,,2b,,,,7,,3,,6,,,,2/8,
,,,7b,,,,1,,8,,2,,,,5/3,,,,2b/6b,,,,4,,,,3b/7b,,,,5,
,,,3b/7b,,,,2/6,,,,4b/8b,,,,6b/2b,,,,1/8,,,,7,,3,,6,,,,5/2,
,,,3-7[8:1],,5,,4-6[8:1],,,,3,,,,4,,,,8,,,{16}7,{32},1,,8-6[8:1],,,,1-3[8:1],
,,,8-4[8:1],,,,1-5[8:1],,,,8,,,,1,,,,8,,,,2,,4,,3,,,,6/4,
,,,7-3[8:1],,1,,6-4[8:1],,,,7,,,,6,,,,2,,,,6,,3,,7-1[8:1],,,,8/2,
,,,7-5[8:1],,,,4,,,,7,,,,4,,,,8bx/1bx,,,,2,,6,,3,,,,4/7,
,,,6-2[8:1],,4,,5-3[8:1],,,,6,,,,5,,,,1,,,{16}2,{32},8,,1-3[8:1],,,,8-6[8:1],
,,,1-5[8:1],,,,8-4[8:1],,,,1,,,,8,,,,1bxV35b[4:1],,,,,,,,5bV71b[4:1],,,,,,,,1b>5b[4:1],
,,,,,,,5b<1b[4:1],,,,,,,,1bx,,,,,,,,,,,,2x,
,3x,,4bx/5bw1b[8:1],,,,,,,,,,,,,,,,7/3,,,,B7,,B6,,B5,,B3,,B2,
,B1,,8x,,,,,8xh[32:1],,,,,,,8x,,,{16}2x,{32},,,,,,,2bx/B7/E7/B6,,,,,,,,2/D8,
,A7,,D7,,A6,,2/D6,,,,,,,,1/8,,,,,,7,,7,,1,,6h[8:1],
,,,D2,,A2,,D3,,A3,,7b/D4,,,,,,,,2,,8,,1h[8:1],,,,8,,1,,,,7,
,2,,,,B7,,B6,,2/E6,,B5,,B4,,,,4xh[8:1]/1xh[8:1],,,,,,,,4x/1x,,,,E2,
B2,B3/E5,B5,B6,,1,,1h[4:1],,,,7p2b[8:1],,,,6h[4:1],,,,7bx,,,,,,,,8,,1,,8,
,1,,8x,,7,,6h[8:1],,,,1x,,2,,3h[8:1],,,,8x>4[8:1],,7,,6,,5,,4/8,,,,6,
,,,8x>4[8:1],,7,,6,,5,,8/4,,,,6,,,,8x,,7,,6,,5,,4h/8-2[8:1]*-3[8:1],,,,,,,,8-6[8:1]*-5[8:1],
,,,,,,,8w4[8:1],,,,,,,,8,,,,,,,,Ch[8:1],,,,,
,,,8/1h[32:5],,,,,{16}8,1q4[32:9],,7,{32},,,C,,,,,,,,E8f,,,,,,,,3,
,4,,5/6,,7,,8bh[4:1],,,,,,,,2b,,,,7/4,,,,3bxh,,,{16}1,
{32}5bh[32:5],,,,,C,,,,,,7,,8,,1/2,,3,,4xh[8:1],,,,7,,6,,5/4,,3,,2/7,
,6,,5/4,,3,,2/7,,6,,5/A3,D4,A4,,A6,D6,A5,,1-7-4[2:1]*-3-6[2:1],{4},,,{16},{32},1,
,,,1xV75[16:3],,,,,,,,,,,,,,,,2xV86[16:3],
,,,,,,,,,,,,,,,4,,5,,4,,5,,4,,5,,4,
,5,,4,,5,,4,,5,,4,,5,,4,,5,,3,,6,,3,,6,,2,,7,,2,
,7,,1x,2,3,4,5,6,7,8,1bx/Cf,,,,2x,,,,2b-5b[8:1],,,,,,,,2/8-4[8:1],,,,7,
,,,8/1-5[8:1],,,,2,,,,7-4[8:1],,,,8,,,,7/3-8[8:1],,,,2,,,,3/6-1[8:1],,,,5,
,,,6/4-8[8:1],,,,3,,,,4/5-1[8:1],,,,6,,,,5/2-5[8:1],,,,3,,,,2/8-5[8:1],,,,1,
,,,8/2-5[8:1],,,,1,,,,2/8-5[8:1],,,,1,,,,8/2-5[8:1],,,,1,,,,2/8,,,,7,
,,,8/6-3[8:1],,,,7,,,,6/8V24b[8:1],,,,7,,,,8b/6-3[8:1],,,,7,,,,6/8-3[8:1],,,,7,
,,,8/6-3[8:1],,,,7,,,,6/8>1-3[8:1],,,,7,,,,8/6,,,,7,,,,1/8v3[8:1],,,,7,
,,,8/1v6[8:1],,,,2,,,,8/1,,,,7,,,,8b/1b,,,,7/2,,,,6/3,,,,5/4,
,,,7b/8b,,,,6/1,,,,5/2,,,,4/3,,,,2b/1b,,,,8/3,,,,7/4,,,,6/5,
,,,4b/8b-3b[8:1],,,,4,,,,8<5b[8:1],,,,5,,,,8b>2b[8:1],,,,3,,,,8<5b[8:1],,,,5,
,,,8,,,,2,,,,1<7[8:1],,,,5,,,,1>4[8:1],,,,4,,,,1<7[8:1],,,,6,
,,,1>4[8:1],,,,4,,,,1,,,,7,,,,8-4b[8:1],,,,8,,,,1-5b[8:1],,,,1,
,,,2-6b[8:1],,,,2,,,,3-7b[8:1],,,,3,,,,4-8b[8:1],,,,4,,,,5-1b[8:1],,,,5,
,,,6-2b[8:1],,,,6,,,,7-3b[8:1],,,,7,,,,8b,,,,8x,,,,8/1bx,,,,1x/8,
,,,7bx,,,,7,,,,6bx/5,,,,6x/5,,,,4/3,,,,3/4,,,,2/1,,,,2/1,
,,,7b/8,,,,6/5,,,,4/3b,,,,2/1,,,,7b/8b,,,,7xh[8:1],,,,,,,,7xh[8:1],
,,,,,,,7xh[8:1],,,,,,,,7xh[8:1],,,,2,,4,,3xh[32:1],,,,7b,,5,,6x,
,6,,2b,,1,,3x,,3,,7b,,8,,6bx,,6,,2b,,,,5,,5,,7,,,,4,
,4,,1xqq6b[8:5]*pp4b[8:5],,,,1x,,,,1bx,{4},,{16},,,{32},7x,
,,,,,,,7xh[2:1],,,,,,,,3x-6[8:1],,,,,,,,3x,,,,,,,,5x,
,,,5x-1[8:1]*-8[8:1],,,,,,,,5x`Cf,,,,,,,,,,,,7/2h[16:3],,,,,,8x,
,1x,,2x,,3x,,4x,,5x/3x,,6x/2x,,7x/1x,,,,6b/2b,,,,5/3,,,,4x,{96},5,,,,3x,,,,{32}4,
,,,6-1[8:1]/2-5[8:1],,,,2/6,,,,6-1V75[8:3]/2-5V31[8:3]`Cf,{4},,{16},,,{32},4xh[4:1],
,,,,,,,8x,,,,8x,,,,2h[8:1]/6b-1[8:1],,,,6,,,,3,,,,3,
,,,8h[8:1]/5-2[8:1],,,,5,,,,6,,,,6,,,,3h[8:1]/7b-4[8:1],,,,7,,,,2,,,,2,
,,,5h[8:1]/8-3[8:1],,,,8,,,,6,,,,6x,,7x,,2b>5b[8:1]/8b<5b[8:1],,,,,,,,2b/8b,,,,,,,,1b,
,2x,,3x,,2b/4,,3x,,4x,,8b/5,,7x,,6x,,5b/8b,,,,,,,,,,8,
,,,8b,,7x,,6x,,7b/5,,6x,,5x,,1b/4,,2x,,3x,{8}1bw5b[8:1],{32},,,,,,,,,,,7b-3b[8:1],
,,,,,,,,,,,,,,,1h[4:1],,,,,,,,8,,7,,6/2,
,3,,4/5,,6,,7/3,,2,,1/8,,7,,6/2x,,,,2b,{96},1,,,,8,,,,{32}7,{96},6,,,,5,,,,{32}4,{96},3,,,,2,,,,{32}7b,
{96},8,,,,1,,,,{32}2,{96},3,,,,4,,,,{32}5,{96},6,,,,7,,,,{32}2b,{96},1,,,,8,,,,{32}7,{96},6,,,,5,,,,{32}4,{96},3,,,,2,,,,{32}1,{24}7b,8,1,2,3,4,
5,6,7,8,5b/1,2,3,4x,5,6,{48}7,4b,{24}8,1,2,3x,4,5,3b/6b,7/4,8/5,{6}6>2[24:85]/1<2[24:85],
{1},,,{4},,,{16},,{24}E6,
B6,B7,
{4},,{16},A5,{32},,,,,A6,,,,,,,A7,
,,,,,,A8/D4,,,,,,,{16}D3,{32},,,,,D2,,,,,,,{8}D6,
{32},,,D7,,,,,,,,,,,,,,,{16}C,{4},,,{16},{32},1h[8:3],
,,,,,,,,,,,8<5[16:33],,,,,,,,,,,,,,,,,,E3,
,,,,,C,,,,B6,,B5,,B4,,B3,,,,,,,,,,,,,,,,,,,{2}C,
{32},,,,,4>1[32:59],,,,,,,,,{16}B5,,,,,B7,E8,{32},,,,,B2/E3/B3,
,,,,,,,,,,,,,,{2}E6,
{4},8>1q3<4[2:17]*<7p5>4[2:17],
E
