&title=HYPER VISION
&artist=VOLTA
&first=0
&des=高科技小猫
&lv_5=14
&inote_5=(155){1},,
{4}1>5[8:5],,{32}B4,B3,,,{8},,,
{4}8<4[8:5],,{32}B5,B6,,,{8},,,
{4}3pp4[8:6],,{32}B7,B8,,,{8},,,
{4}7pp6[8:6],,{32}B3,B4,,,{8},,,
{4}2>6[8:5],,{32}B4,B3,,,{8},,,
{4}7<3[8:5],,{32}B5,B6,,,{8},,,
{4}1V35[8:5],,{32}B7,B8,,,{8},,,
{4}1<3[8:4],,{32}E3,E2,E1,E8,{8},,,
{8}1,,E7,1,E6,,2/E5,,D8,2,D7,,3/D6,,D5,,
{8}8,,E3,8,E4,,7/E5,,D2,7,D3,,6/D4,,D5,,
{16}6h[8:1]/2,,,5h[8:1]/1,,,4h[8:1]/8,,,7/3h[8:1],,,6/2h[8:1],,,5/1h[8:1],,,4/8h[8:1],,,7h[8:1]/3,,,
{16}4,6,3,5,2,6,1,7,
{8}8bV24[16:3],,,5bV71[16:3],,,3b<8-2-5b[16:9],,,,,,Chf[8:4],,,,
{8},,,,,,E3,E4,
{8},,,,,,E6,E5,
{8},,,,,,E8,E1,
{8},,,,{16}E7,E6,E5,E4,E3,,,,
{8},,,,,,D3,D4,
{8},,,,,,D6,D5,
{8},,,,,,,,Ch[8:6],,,,,,,,
{8}1/7,8,{16}6,5,,4,5,,6,5,7,,8,,
{8}3/5,1,{16}3,4,,5,4,,3,4,2,,1,,
{8}4/6,7,{16}6,5,,3,4,,6,5,8,,1,,
{8}26,{16}3,4,1,,7,,5>2[8:1]*<8[8:1],,46,,,,,,
{16}1,7,1,7,1,7,1,7,2,6,1,7,3,5,4,6,
{16}2,8,2,8,2,8,2,8,3,7,2,8,4,6,3,5,
{16}1,5,2,6,3,7,4,8,3,7,2,6,{32}1x,8x,7x,6x,5x,4x,3x,2x,
{32}1x/E5,C,E1,,,,,,{8},,1s5[8:1]/8,,,,
{8}2>6[8:1]/5-2[8:1],,2/5-7-1-3[16:4],,,,4-7-1-5b[16:5],,
{8},,,,3-6[8:1],6-3[32:3],,,
{8}8b<5[8:1],,{32}8/4-8[8:1],3,2,1,,,,,{8}2/4,,{32}6/1,5,4,3,2,1,8,7,
{8}4-7[8:1]*-1[8:1]/6,,4V68>1V35[16:6],,8,,,,
{8}7b,,{24}3,5,3,5,3,5,{8}4-8[8:1],6-3[8:1],,,
{8},{16}1x/4x,,,3x/2x,,,8x/5x,,,7x/6x,,,6,6,
{8}1v8[8:1]*-5[8:1],,Cf/1b>7[8:2],,4,,{32}1,2,3,4,5,6,7,8,
{8}1/5-8[8:1]*-3[8:1],,5p4>6[16:8],,1,,,,
{8}2b,,{24}6,4,6,4,6,4,{8}7-4[8:1],4-6<1-5[8:3],7,1b>4b[8:1],
{8},,,6,8<5[8:1]/4>1[8:1],,4/8q1[8:4],,Cf,,,,,,8z4[16:3],,
{8}4bqq1[16:6]*pp7[16:6],,,,,,8,,
{8}2b/8b,4,{16}7-3[8:1],1,5,3,7,,2,2,,6,5,8,
{16}3,,1h[8:1]/5h[8:1],,,34,,7h[16:3],1h[8:1],,,46,,,1,8,
{8}2-6[8:1],5h[8:1],2b,{16}7,7,5,,48,,{32}E4,E3,E2,E1,E8,E7,E6,,
{8}4xqq5[8:3],,{16}48,,,6xh[8:1],,,6x,,84,,,,
{8}7b/1b,5,{24}2,4,2,4,2,4,{8}1-6[8:1],6-4>8-4[8:3],1,8b<5b[8:1],
{8},,,4/7>3-5b[16:4],2h[8:2]/1b,,,1,
{1}1bpp6[8:12]/Cf,,7qq4[8:12],,3qq4[8:12],,6>3[8:6],{2}2h[2:1],3x-5[8:1],
{16}1bx,,7,,6,5,,4,5x,,6,5,,4,5,,
{16}6x,,2,,3,4,,5,4x,,3,4,,5,4,,
{16}3x,,7,,6,5,,3,4x,,6,5,,4,5,,
{16}2x,,6,5,,4,5,,3x,,4,2,,8,1,8,
{16}1x,,7,,6,5,,4,5x,,6,5,,4,5,4,
{16}5x,,2,,3,4,,5,4x,,3,4,,5,4,5,
{16}4x,,7,,6,5,,3,4x,,6,5,,4,5,4,
{8}7x-3[8:1],,7/8b-4[8:1],,8/1b-5[8:1],,1/2b,,
{16}3,,,3,7,,3,,6,3,,,3/5,,,3,4,,3,,2,3,,,3/1,,,4x,8,,4x,,
{16}7,,,7,5,,7,,6,7,,,7/8,,,6,1,,6,,2,6,,,{8}7-4[8:1]/2-5[8:1],18,,,
{16}3,4,1,5,3,4,2,4,3,5,4,6,
5,7,4,8,5,6,5,7,4,6,3,5,
{16}2,6,1,8,3,7,1,8,2,2,4,4,6,6,8,8,1x,1x,1x,1x,
{16}E1,,,7x/B2,,,3/B6,,,5x/E5,,,4x/C,,,5xw1[16:2]/E1,,,,,
{16},,1x,8x-4[8:1],2b/7b,,,8,,1,5>2[8:1],3,8,,5<8[8:1]/6,,
{16}7,,35,,2,2h[8:1],,1,,3,8>3[8:1],1,6,,87,,
{16}5bh[8:1],,2x,,6,5,8,4,6,5,7,4,6,5,8,4,
{16}6h[8:1],,1x,,4-6[8:1]*-7[8:1],3x,,,4-1[8:1]*-2[8:1],,,,4,,,,
{16}2b/6b,,8,,7-3[8:1],3,6,4,7,,1-6[8:1],5,2,,1-4[8:1]/4,,
{16}3,,17,,6,6h[8:1],,8,,7,4-8[8:1],5,2,,41,,
{16}3bh[8:1],,7x,,2,4,1,6,2,4,3,8,2,4,1,6,
{16}3h[8:1],,7x,,4,8x,,,57,,,24,,,6,6,
{16}1-5[8:1],,2x,7x-3[8:1],1b/6b,,,7,,2,4-1[8:1],1,6,,4-8[8:1]/7,,
{16}5,,42,,3,3h[8:1],,6-1[8:1],,1-5[8:1]/7,2,3,4,,,,
{16}2bh[8:1],,7x,,3,4,1,5,3,4,2,5,3,4,1,5,
{16}3h[8:1],,8x,,5-2[8:1],6x,,,8-4[16:1]/5,,,8,,,1,,
{16}7b/3b,,8,,2-6[8:1],6,3,5,2V84[8:2],,7,7,2,,5>2[8:1],,
{16}6,,57,,6,6h[8:1],,1-5[8:1],,5-2[8:1]/2,6,7,8,,,,
{16}6bh[8:1],,1x,,7,5,8,3,7,5,6,1,7,5,8,3,
{16}6,,5xh[8:1]/A1/E1,,,3xh[8:1]/A7/E7,,,6xh[8:1]/A2/E2,,,8xw4b[12:1]/A4/E4,,,
{32}8b/1b,E1,Cf,E5,
{16},,,,7,3,6,2,5,3,6,4,7,5,6,4,
{16}5h[8:1],,2,,4,3,,,5/2,,,41,,,3h[8:1],,
{16}8xh[8:1],,,,2,6,3,7,4,6,3,5,2,4,3,5,
{16}4h[8:1],,7,,5,6,,,47,,,58,,,6h[8:1],,
{16}1x,5,2,4,3,5,4,6,3,7,2,8,1,7,8,6,
{16}1,5,2,6,3,7,4,8,5,1,4,8,3,7,2,6,
{24}1x,8x,7x,6x,5x,4x,{16}6,3,7,2,8,1,2,3,4,5,6,7,
{16},,85,,,67,,,14,,,3-8b[8:1]/2-6b[8:1],,,2b<3[8:13]/3b<2[8:13]/Cf,,,
&inote_6=(155){1},,
{4}1>5[8:5],,{32}B4,B3,,,{8},,,
{4}8<4[8:5],,{32}B5,B6,,,{8},,,
{4}3pp4[8:6],,{32}B7,B8,,,{8},,,
{4}7pp6[8:6],,{32}B3,B4,,,{8},,,
{4}2>6[8:5],,{32}B4,B3,,,{8},,,
{4}7<3[8:5],,{32}B5,B6,,,{8},,,
{4}1V35[8:5],,{32}B7,B8,,,{8},,,
{4}1<3[8:4],,{32}E3,E2,E1,E8,{8},,,
{8}1,,E7,1,E6,,2/E5,,D8,2,D7,,3/D6,,D5,,
{8}8,,E3,8,E4,,7/E5,,D2,7,D3,,6/D4,,D5,,
{16}6h[8:1]/2,,,5h[8:1]/1,,,4h[8:1]/8,,,7/3h[8:1],,,6/2h[8:1],,,5/1h[8:1],,,4/8h[8:1],,,7h[8:1]/3,,,
{16}4,6,3,5,2,6,1,7,
{8}8bV24[16:3],,,5bV71[16:3],,,3b<8-2-5b[16:9],,,,,,Chf[8:4],,,,
{8},,,,,,E3,E4,
{8},,,,,,E6,E5,
{8},,,,,,E8,E1,
{8},,,,{16}E7,E6,E5,E4,E3,,,,
{8},,,,,,D3,D4,
{8},,,,,,D6,D5,
{8},,,,,,,,Ch[8:6],,,,,,,,
{8}1/7,8,{16}6,5,,4,5,,6,5,7,,8,,
{8}3/5,1,{16}3,4,,5,4,,3,4,2,,1,,
{8}4/6,7,{16}6,5,,3,4,,6,5,8,,1,,
{8}26,{16}3,4,1,,7,,5>2[8:1]*<8[8:1],,46,,,,,,
{16}1,7,1,7,1,7,1,7,2,6,1,7,3,5,4,6,
{16}2,8,2,8,2,8,2,8,3,7,2,8,4,6,3,5,
{16}1,5,2,6,3,7,4,8,3,7,2,6,{32}1x,8x,7x,6x,5x,4x,3x,2x,
{32}1x/E5,C,E1,,,,,,{8},,1s5[8:1]/8,,,,
{8}2>6[8:1]/5-2[8:1],,2/5-7-1-3[16:4],,,,4-7-1-5b[16:5],,
{8},,,,3-6[8:1],6-3[32:3],,,
{8}8b<5[8:1],,{32}8/4-8[8:1],3,2,1,,,,,{8}2/4,,{32}6/1,5,4,3,2,1,8,7,
{8}4-7[8:1]*-1[8:1]/6,,4V68>1V35[16:6],,8,,,,
{8}7b,,{24}3,5,3,5,3,5,{8}4-8[8:1],6-3[8:1],,,
{8},{16}1x/4x,,,3x/2x,,,8x/5x,,,7x/6x,,,6,6,
{8}1v8[8:1]*-5[8:1],,Cf/1b>7[8:2],,4,,{32}1,2,3,4,5,6,7,8,
{8}1/5-8[8:1]*-3[8:1],,5p4>6[16:8],,1,,,,
{8}2b,,{24}6,4,6,4,6,4,{8}7-4[8:1],4-6<1-5[8:3],7,1b>4b[8:1],
{8},,,6,8<5[8:1]/4>1[8:1],,4/8q1[8:4],,Cf,,,,,,8z4[16:3],,
{8}4bqq1[16:6]*pp7[16:6],,,,,,8,,
{8}2b/8b,4,{16}7-3[8:1],1,5,3,7,,2,2,,6,5,8,
{16}3,,1h[8:1]/5h[8:1],,,34,,7h[16:3],1h[8:1],,,46,,,1,8,
{8}2-6[8:1],5h[8:1],2b,{16}7,7,5,,48,,{32}E4,E3,E2,E1,E8,E7,E6,,
{8}4xqq5[8:3],,{16}48,,,6xh[8:1],,,6x,,84,,,,
{8}7b/1b,5,{24}2,4,2,4,2,4,{8}1-6[8:1],6-4>8-4[8:3],1,8b<5b[8:1],
{8},,,4/7>3-5b[16:4],2h[8:2]/1b,,,1,
{1}1bpp6[8:12]/Cf,,7qq4[8:12],,3qq4[8:12],,6>3[8:6],{2}2h[2:1],3x-5[8:1],
{16}1bx,,7,,6,5,,4,5x,,6,5,,4,5,,
{16}6x,,2,,3,4,,5,4x,,3,4,,5,4,,
{16}3x,,7,,6,5,,3,4x,,6,5,,4,5,,
{16}2x,,6,5,,4,5,,3x,,4,2,,8,1,8,
{16}1x,,7,,6,5,,4,5x,,6,5,,4,5,4,
{16}5x,,2,,3,4,,5,4x,,3,4,,5,4,5,
{16}4x,,7,,6,5,,3,4x,,6,5,,4,5,4,
{8}7x-3[8:1],,7/8b-4[8:1],,8/1b-5[8:1],,1/2b,,
{16}3,,,3,7,,3,,6,3,,,3/5,,,3,4,,3,,2,3,,,3/1,,,4x,8,,4x,,
{16}7,,,7,5,,7,,6,7,,,7/8,,,6,1,,6,,2,6,,,{8}7-4[8:1]/2-5[8:1],18,,,
{16}3,4,1,5,3,4,2,4,3,5,4,6,
5,7,4,8,5,6,5,7,4,6,3,5,
{16}2,6,1,8,3,7,1,8,2,2,4,4,6,6,8,8,1x,1x,1x,1x,
{16}E1,,,7x/B2,,,3/B6,,,5x/E5,,,4x/C,,,5xw1[16:2]/E1,,,,,
{16},,1x,8x-4[8:1],2b/7b,,,8,,1,5>2[8:1],3,8,,5<8[8:1]/6,,
{16}7,,35,,2,2h[8:1],,1,,3,8>3[8:1],1,6,,87,,
{16}5bh[8:1],,1,,6,5,8,4,6,5,7,4,6,5,8,4,
{16}6h[8:1],,1x,,4-6[8:1]*-7[8:1],3x,,,4-1[8:1]*-2[8:1],,,,4,,,,
{16}2b/6b,,8,,7-3[8:1],3,6,4,7,,1-6[8:1],5,2,,1-4[8:1]/4,,
{16}3,,17,,6,6h[8:1],,8,,7,4-8[8:1],5,2,,41,,
{16}3bh[8:1],,7,,2,4,1,6,2,4,3,8,2,4,1,6,
{16}3h[8:1],,7,,4,8,,,57,,,24,,,6,6,
{16}1-5[8:1],,2,7-3[8:1],1b/6b,,,7,,2,4-1[8:1],1,6,,4-8[8:1]/7,,
{16}5,,42,,3,3h[8:1],,6-1[8:1],,1-5[8:1]/7,2,3,4,,,,
{16}2bh[8:1],,7,,3,4,1,5,3,4,2,5,3,4,1,5,
{16}3h[8:1],,8x,,5-2[8:1],6x,,,8-4[16:1]/5,,,8,,,1,,
{16}7b/3b,,8,,2-6[8:1],6,3,5,2V84[8:2],,7,7,2,,5>2[8:1],,
{16}6,,57,,6,6h[8:1],,1-5[8:1],,5-2[8:1]/2,6,7,8,,,,
{16}6bh[8:1],,1,,7,5,8,3,7,5,6,1,7,5,8,3,
{16}6,,5xh[8:1]/A1/E1,,,3xh[8:1]/A7/E7,,,6xh[8:1]/A2/E2,,,8xw4b[12:1]/A4/E4,,,
{32}8xb/1xb,E1,Cf,E5,
{16},,,,7,3,6,2,5,3,6,4,7,5,6,4,
{16}5h[8:1],,2,,4,3,,,5/2,,,41,,,3h[8:1],,
{16}8xh[8:1],,,,2,6,3,7,4,6,3,5,2,4,3,5,
{16}4h[8:1],,7,,5,6,,,47,,,58,,,6h[8:1],,
{16}1x,5,2,4,3,5,4,6,3,7,2,8,1,7,8,6,
{16}1,5,2,6,3,7,4,8,5,1,4,8,3,7,2,6,
{24}1x,8x,7x,6x,5x,4x,{16}6,3,7,2,8,1,2,3,4,5,6,7,
{16},,85,,,67,,,14,,,3-8b[8:1]/2-6b[8:1],,,2b<3[8:13]/3b<2[8:13]/Cf,,,
