&title=with you...
&artist=Sota Fujimori
&first=0
&des=Sakurago
&clock_count=4
&lv_5=13+
&inote_5=(135.00)
{8},,,,,,,,
{8},,,,,,,,
{16}2h[8:2]/5,,,,5,,,,
5,,4h[8:1],,5,4,,,
{16}6hx[8:2]/5,,,,5,,,,
5,,4,,3/5,3,,,
{16}1h[8:2]/5,,,,5,,,,
5,,4h[8:1],,5-8[8:1],4,,,
{16}5-2[8:1]/3,,,,5<1[16:3]/7,,,,
4/5,,,,5bx/Cf,,,,
{16}5-1[8:1]/8-6[8:1],,,,5/8,,,,
2/5,,4,,5/7,4,6,,
{16}2-4[8:1]/5-1[8:1],,,,2/5,,,,
5/7,,6,,3/5,4,7,,
{16}5-1[8:1]/8-4[8:1],,,,8/5,,,,
3/5,,2,,4/5,,1,,
{16}7/5,,6,2,5-8[8:1],4,6,3,
5,,4,,5,7,3,,
{16}2-4[12:1]/5,,,,2/5,6x,6x,,
5/7,,8,,4/5,6,2,,
{16}8-2[12:1]/5,,,,5/8,6x,6x,,
3/5,,4,,5/6,7,4,,
{16}3/5,,4,,7/5pp6[16:3],,6,,
3h[8:1]/5,,,,4x/5x,,1/8,,
{16}2/5,3/4,,2h,5-8[8:1],2h,,2h,
5,,,,5,7,1,,
{16}5-1[8:1]/2-5[8:1],,,,5/2,,,,
8/5,,1/4,,5/8,,2/3,,
{16}7/5v8[8:1],,,,4/5,,1,,
2h[8:1]/5,,3,4,5,6,7/8,,
{16}1/5,,4,6,5,7h[8:1],,3,
5v7[8:1],4,6,3,5,,,,
{16}5/2,4,7,,2/5,4,7,,
5-2[8:1]/3,4,6,,5,,,,
{16}5,4,6,,3/5,,2/6,,
1/5,,8h[8:1],,5,,1,,
{16}2/5,,4,3,2/5,,6,,3/5,,4,6,5,6,4,,
{16}3qq3[16:3]/5,,2,,5,,,,5,4,7,1,5,,4,,
{16}3/5,,4,4,5v8[8:1]*v2[8:1],6,6,,5b,,,,5,3,4,2,
{16}1x>4[8:1]/5x<8[8:1],,,,1/5,,,,5/6,,4,4h[16:1],5,3,4,3,
{16}3/5,,3/7,,5/7,,3/7,,
3h[8:2]/5<7[12:1],,,,5,2,3,4,
{16}5/8,,2/6,,5/8,,2/6,,
5/7,,1/4,,5p3[16:5]/7,,1/4,,
{16}5/7,,,,5,,6,2,
5,,1/8,,5,3,7,,
{32}5/1h[8:4],4,3,2,,8,7,6,
5,4,3,2,,8,7,6,
5,,,,,,,,
5,,3,,7,,,,
{32}5/1h[8:4],4,3,2,,8,7,6,
5,4,3,2,,8,7,6,
5-1[8:1],,,,3,,,,
4/5,,,,,,,,
{16}5/6,4,7,,3/5,,1/7,,
4/5,,2/7,,4/5,,3,3,
{16}5,4,7,2,5-7-1-3[8:2],4,6,3,
5,,,,5b,,,,
{16}5,4,6,,3/5,,4,,
5/6,,7h[8:1],,5,8,7,6,
{16}2/5,,1/6,,2/5,,3,6,
5,4,3,,4/5,,,,
{16}5,3,6,,5/7,,4,,
2-6[8:1]/5,,1,,5,,7,,
{16}6x/5x,,3/4,,5-1[8:1]/6,,4,4,
5-2[8:1]*-8[8:1],,,,5b,,,,
{16}5,4,6,,2/5,,4,,
5/7-4[8:1],,6,,5,,,,
{16}5,3,7,,2/5,,1,,
5/8q4[8:1],,7,,5,,6,,
{16}3/5,,4,8,5,6,4,7,
5>3[8:1],,6h[8:1],,5,,,,
{16}2/5,,6,,4/5-1[8:1],3,2,,
5b>2[8:1]*<8[8:1],,,,5b,,,,
{16}3/5,,3,,5/1,,1,,
7/5,,1,1hx[16:1],5,3hx[16:1],,1hx[8:1],
{16}5,,7x,,1x/5,2,3h[8:1],,
5,4,3,4,5,4/6,,,
{16}2/5,,3-1[12:1]/7,,5,,3-8[8:1],,
5,,3-7[8:1],,5,,3,,
{16}5,,8,,5/2,6/3,7/4,,
5/6,,3/8,,4/5V71[16:3],,2h[8:1]/7,,
{16}5xp4[8:2],,4,,5x,,7,,
5x,,3,4,5,4,3,,
{16}2/5,,1h[8:1],,5,,7/8,,
3h[8:1]/5,,7,,1/5,2,3,4,
{16}5-2[8:1]/7-4[8:1],,,,5<8[8:1]/7,,,,
5-1[8:1],,3,3,5,4,4,,
{16}5/7,,8h[8:1],,5,,6/7,,
5w1[8:1]/8,4,6,,5b,,,,
{8}3x>8q4[8:4]/5x,,5,,5,,5,,
{8}3q6<1[8:4]/5,,5,,5,,5,,
{8}4p7q4[8:4]/5,,5,,5,,5,,
{8}3s7s3[8:4]/5,,5,,5,,5,,
{16}5/4qq3[8:2],,,,5,,,,
5,,B4,,5/B2,B1,,E8,
{16}5,B3,Ch[16:10],,5,,,,
5,,,,5,,,,
{16}5/4hx[8:1],,,,{32}5,,E7,B7,B8,B1,B2,E3,
{16}5/A4/D4/E4,,A1/D2/E2,,5-7[8:1]*-8[8:1],,,,
{16}5-3[8:1]*-2[8:1],,,,5,,,,
5,1,,3/4,5b/2b,,,,
{16}5,,,3,5,4,,7,
5,,6,,5,8,,2,
{16}5,4,,6h[16:1],5,{48}7x,,8x,,1x,,2x,,,5,,,{16},6,,5/4,3,2,1,
{16}5v8[8:1]/8,,,,4/5,,4,,
5,3h,,7h,5<6-8[8:1],6h,,1h,
{16}5,,,3,7,2,3,4,
5,2,3,4,5-1[8:1],2,3,4,
{16}5,,,7,5,6,,3,
5,,4/6,,5,1,7,3,
{16}5,2,2,2,5,4,4,4,
5,6,6h[8:1],,5,4,6,4,
{16}5,2,7,E3/B3,5,E1/B1,,B7/E7,
5,Ch[16:3],,,5,,1,,
{16}5,3,3,3,5s1[8:2],7,7,7,
5,,,,5b,,,,
{8}2-5[8:1]/5,,5-2[8:1],6,{4}2-5[8:1]/5x,5-2[8:1],
{8}2-5[8:1]/5x,1,5-2[8:1],6,{4}2-5[8:1]/5x,5,
5x/8-5[8:1],{8}5-8[8:1],4,{4}5x/8-5[8:1],5-8[8:1],
{8}8-5[8:1]/5x,1,5-8[8:1],4,{4}8-5[8:1]/5x,5,
1-5[8:1]/5x,{8}5-1[8:1],7,{4}1-5[8:1]/5x,5-1[8:1],
{8}1-5[8:1]/5x,8,5-1[8:1],6,{4}1/5x,5/7>2[8:1],
7/5,{8}5/3-8[8:1],8-3[8:1],{4}5,5,{8}5/2,
1,6/5,8,1-4b[8:1]/5-8b[8:1],{16}3/7,3/7,
{1},
