&title=感情革命ロックンロール
&artist=七海うらら
&first=0.184
&lv_5=13+
&des_5=梦幻梦鱼
&inote_5=
(200){4},,4h[8:1],3h[8:1],
2h[8:1],1h[4:1],{8}8,7,6,5,
,6,5,7,1,8,{4}4h[8:1],
3h[8:1],2h[8:1],{8}1h[8:1],8h[4:1],,2h[4:1],
,8,7,6,5x-1[6:1],5x,,,,3,
5,4-6[6:1]*v7[6:1],,4-2[6:1]*v1[6:1],{2},{8}7,
8-6[6:1]*v5[6:1],1,8-2[6:1]*v3[6:1],{2},{8}1<5[8:5],
1,,,,5>1[16:9],
{4}5,{2},{4}7h[6:1],
{3}2v5[4:1],,{12}6/5h[6:1],{6},{12}1,
8,7,6,1,2,3,{6}4,8/7h[4:1],{12},8,
{16},,,1/2,,1/2,{4},{8}6/5v4-8[16:11],,5/C,
{16},,,,,,,,,,,1/2h[4:1],,,,1,
{4},{8}8/7,8/7,{16},,,4/3-5-7-1[16:9]*-1-7-5[16:9],,,,3/C,
,,,,,,,,,,,4-2-8[8:3],,,,4,
,,,5-7-4[16:5],{8},,,,,1h[4:1],
,8,1,8,1,8,{4}2-5[4:1],
{8}2/5-8[4:1],{2},{8}5/1-3[16:3],,,,4/8-6[16:3],
{12},,,,,{3}4-1[2:1],
{4}8bx,8bx-6-4[8:5],{8},,,4-2-8[16:9],
,2,{16},,,8-6[4:1]*-5[4:1],{4},,,{8}4,
4-1[16:3]*-2[16:3],,4-6[16:3]*-7[16:3],{2},{8}8-6[16:3]*-5[16:3],
2,{4}8-2[16:3]*-3[16:3],8<8[16:13],
{16},,,,,,,,,8w4[16:11],{8},,,,,,,,,{4}8,
1/8-5[4:1],8/2>2[1:1],,E8/B8,
B4/E4,C,B8/E1/B1,4/3,
7/8,{8}1,1,8-6-4[2:1],8,{4},{1}4-2-8[2:1],
{4}6/5,E8/E4,1/B5,2/B6,
3/B7,4/B8,{2}1h[4:1]/5-7-2[2:1],
{4},{16}3bx,4x,{8},{16}3bx,4x,{4},{8}6/5,
7,1/8,2,3/4,5-3[16:3]*-2[16:3],6/7,{4}5-7[16:3]*-8[16:3],
{8}5v3-1[2:1],{4},,,{8}8h[4:1],
{4},{8}3/3/4,7/8,1-7[16:3]/2-4[16:3],6/5,{4}1-5[16:3]/2-6[16:3],
{8}1<6[2:1]/2>5[2:1],{4},,,{8}7/1,
6,8/2,3,7/1,6-8-2[16:3],8/2,{4}3-1-7[16:3],
{8},,,6/4,7-1-3[16:3],5/3,{4}2-8-6[16:3],
{8},,,2-5-7[4:3]/7-4-2[4:3],,,,,,,,,,{16}8x,
1,{8}2h[16:1],{16}1x,2,
{8}3h[16:1],{16}1x,8,{4}7h[16:1],{2}3h[4:1]/6-8-2[2:1],
2-4-6[2:1],6-2[4:1],
{8},8,7,1,8,1,{4}8h[8:1],
{8}2h[4:1],{4},{8}1h[8:1],,2h[16:3]/3h[16:3],,8,
7,1h[8:1],,8,{4}8,6h[16:3]/2-8-6[2:1],
,6-4-2[2:1],,2,
{8},{16}8,1,2,3,4,5,6,7,8,1,{4}2h[4:1],
{2}4b,{4}8h[8:1]/1h[8:1],7h[8:1]/2h[8:1],
6h[8:1]/3h[8:1],5h[8:1]/4h[8:1],E8/B8/E1/B1/E2/B2/E3/B3/E4/B4/E5/B5/E6/B6/E7/B7/C,Ch[4:3],
,,,{8}B8/B7/E8f,E4f/B3/B4,
{4},{8}B1/B2/E2f,E6f/B6/B5,{4}8-3[16:3],8/7-4[16:3],
,1h[4:1],{8}8,7,6,5,
,3,4,3,8/1-4[16:3],8/1,{4}1/8-5[16:3],
8-3[16:3],8<5[16:3],,3h[16:3],
{8},7h[4:1]/8h[4:1],{16},,,6,5,4,3,2,{4}1-7[16:3],
7/1-3[16:3],3/1-7[16:3],7/1-3[16:3],3/1-7[16:3],
7/1-3-5[8:3],3,,8h[8:1]/7h[8:1],
{8}1/6,Ch[4:1],,5w1[8:5],{1},{16}8-6[16:3]*-2[16:3],
1,8,1,{4}8-4[16:3],
{2}8>3[16:3],{8}5,6,7,8,
,2,1,2,8/7-4[16:3],8/7,{4}7/8>3[16:3],
{8}8-4[16:3],{2},{16}2,1,8,7,6,5,
4,3,2,1h[16:3],{8},7b,8/7,8h[16:5]/7h[16:5],,,,1/2,
8/3,1-5[16:3]/2-6[16:3],,1-7[16:3]/2-4[16:3],{2},{8}8/7,
8-2[16:3]/7-5[16:3],6/1,8-4[16:3]/7-3[16:3],{2},{8}1<5[8:5],
1,,,,5>1[16:9],
{4}5,{2},{4}7h[6:1],
{3}2v5[4:1],,{12}6/5h[6:1],{6},{12}1,
8,7,6,1,2,3,{6}4,8/7h[4:1],{12},8,
{16},,,1/2,,1/2,{4},{8}6/5v4-8[16:11],,5/C,
{16},,,,,,,,,,,1/2h[4:1],,,,1,
{4},{8}8/7,8/7,{16},,,4/3-5-7-1[16:9]*-1-7-5[16:9],,,,3/C,
,,,,,,,,,,,4-2-8[8:3],,,,4,
,,,5-7-4[16:5],{8},,,,,{16}1x,2x,
{8}3h[16:1],{16}2x,3x,{8}4h[16:1],{16}8x,7x,{4}6h[8:1],8b/1b,
{8}8bh[8:3]/1bh[8:3],{2},{8}B8/B7/E8f,,B3/B4/E4f,
,Cf,,,,7/2,{4}7h[4:1]/2h[4:1],
,{8}5/4,4/5<1[8:3],{2}C,
{4}3b,6b/8b,{2}3b/5b,
{4}8h[16:3],1h[16:3],2h[8:1],3h[8:1],
{8}4,5,6,7,8,1,{4}2h[16:3],
4,{16}3,{8},{16}2,{8},1/8,,5/4,
3,2/1,8,7/6,5v8[16:3]*-7[16:3],4/3,{4}5-3[16:3]*v2[16:3],
{8}5z1[2:1],{4},,,{8}1/2,
3,4/5,6,7/8,1v6[16:3]*-7[16:3],2/3,{4}1v4[16:3]*-3[16:3],
{8}1z5[2:1],{4},,,{8}4/3,
5,6/7,8,1/2,3v8[16:3]*-1[16:3],4/5,{4}3-5[16:3]*v6[16:3],
{8},,,8,{4}8-6[16:3]*v5[16:3],8-2[16:3]*v3[16:3],
,4<8>4[8:7],{2}4h[16:7],
{8},,,,,E8/B8/B7,,B1/E2/B2,
,B5/B4/E5,{4},8/1,8h[2:1]/1h[4:1],
{2},{8}3,4h[4:1],,5h[4:1],
,8h[8:3],{4},{8}7,7,1,1,
2>6[2:1],2,{4},{2}6<2[2:1],
{4}2-6[2:1],{16}8b,{8},{16}8b,{8},8bxh[8:5],{2},{4}3,
{8}6/5,8h[4:1],,1h[4:1],
,C,,{24}5x,6,7,8,1,2,3,4,5,{4}6h[4:1],
,4b,1h[8:1],7h[8:1]/2h[8:1],
6h[8:1]/3h[8:1],5h[8:1]/4h[8:1],E8/B8/E1/B1/E2/B2/E3/B3/E4/B4/E5/B5/E6/B6/E7/B7/C,Ch[4:3],
,,,{8}B8/B7/E8f,E4f/B3/B4,
{4},{8}B1/B2/E2f,E6f/B6/B5,{4}8-3[16:3],8/7-4[16:3],
,1h[4:1],{8}8,7,6,5,
,3,4,3,8/1-4[16:3],8/1,{4}1/8-5[16:3],
8-3[16:3],8<5[16:3],,3h[16:3],
{8},7h[4:1]/8h[4:1],{16},,,6,5,4,3,2,{4}1-7[16:3],
7/1-3[16:3],3/1-7[16:3],7/1-3[16:3],3/1-7[16:3],
7/1-3-5[8:3],3,,8h[8:1]/7h[8:1],
{8}1/6,Ch[4:1],,5w1[8:5],{1},{16}8-6[16:3]*-2[16:3],
1,8,1,{4}8-4[16:3],
{2}8>3[16:3],{8}5,6,7,8,
,2,1,2,8/7-4[16:3],8/7,{4}7/8>3[16:3],
{8}8-4[16:3],{2},{16}2,1,8,7,6,5,
4,3,2,1h[16:3],{8},7b,8/7,8h[16:5]/7h[16:5],,,,1/2,
8/3,1-5[16:3]/2-6[16:3],,1-7[16:3]/2-4[16:3],{2},{8}8/7,
8-2[16:3]/7-5[16:3],6/1,8-4[16:3]/7-3[16:3],{2},{8}1<5[8:5],
1,,,,5>1[16:9],
{4}5,{2},{4}8h[8:1],
8h[8:1],1h[8:1],{8}1,7h[8:1],,7h[8:1],
,8h[8:1],,8,2,1,{4}2h[8:1],
2,4h[8:1],{8}4,{16}5,6,{8}7,{16}1,2,
{8}3,{16}8,7,{4}6,{8}4,4,{4}7h[8:1],
7h[8:1],{8}1,1b,,5h[8:1]/3h[8:1],,7h[8:1]/1h[8:1],
,{16}3,2,1,8,{8},6,6,{16}7,8,{8}1,
{16}2,3,{8}4,{16}7,6,{8}5,{16}2,3,4/5,6,7,8,1,2,
3,4,6,5,4,3,2,1,{4}8h[8:1],5h[8:1],
3h[8:1],1h[8:1],{8}2,2h[8:1],,7,
6,5,{4},1h[8:1],8h[8:1],
2h[8:1],6h[8:1],4h[8:1],{8}7,7h[8:1],
,4h[8:3],{2},{4}8h[8:1],
1h[8:1],6h[8:1]/5h[8:1],{8}8/3,7h[8:1]/2h[8:1],,6h[8:1]/1h[8:1],
,5h[4:1]/8h[4:1],{4},{8}3/7,3h[16:3]/7h[16:3],{4},{8}8/4,
8/4,,{32}1x,8,7,6,5,4,3,2,1,8,7,6,5,4,3,2,1,8,7,6,
5,4,3,2,1,8,7,6,5,4,3,2,1,8,7,6,5,4,3,2,1,8,7,6,5,4,{16},,,,,,,,,,,,,,,{8}B8/B7/E8f,
E4f/B3/B4,
{4},{8}E2f/B1/B2,E6f/B6/B5,{4}1x-6[16:3],1x/2x-5[16:3],
,8h[4:1],{8}1,2,3,4,
,6,5,6,1/8-5[16:3],1/8,{4}8/1-4[16:3],
1-6[16:3],1>4[16:3],,6h[16:3],
{8},3h[4:1]/2h[4:1],{16},,,4,5,6,7,8,{4}1-3[16:3],
3/1-7[16:3],7/1-3[16:3],3/1-7[16:3],7/1-3[16:3],
3/1-7-5[8:3],7,,{8}8/7,8-4[4:1]/7-3[4:1],
{24},,,,,,,,,,,,,7,6,5,4,3,2,1,8,7,6,5,
4,3,2,1,8,7,6,5,4,3,2,1,{4}8-6[16:3]*-5[16:3],8-4[16:3],
{2}8>3[16:3],{8}5,6,7,8,
,2,1,2,8/7-4[16:3],8/7,{4}7/8>3[16:3],
{8}8-4[16:3],{2},{16}2,1,8,7,6,5,
4,3,2,1h[16:3],{8},7b,8/7,8h[16:5]/7h[16:5],,,,1/2,
8/3,1-5[16:3]/2-6[16:3],,1-7[16:3]/2-4[16:3],{2},{8}8/7,
8-2[16:3]/7-5[16:3],6/1,8-4[16:3]/7-3[16:3],{2},{8}1<5[8:5],
1,,,,5>1[16:9],
{16}5,{8},,,{16}1<5>1<5>1<5[16:33],,1,{8},,,,,,,,,,,,,,,,,{4}1-5[16:3],
,8-4[16:3],{2}3-8[16:3],
{8}5/6<2>6<2>6<2[4:7],6/5,{1},,{4}5-2[16:3],
,8-3[16:3],
{2}5-1[16:3],{8}3/6-1[16:3],6/3-8[16:3],{2},{8}2,
3,4,5,{4}8/7h[4:1],
8,{8}1/2,1/2,,4h[8:1]/5h[8:1],,{16}8,7,
6,5,4,3,2,1,{8},8/7,8/7,
E
