&title=猪猪侠
&artist=陈洁丽
&first=-1.8
&des=GG BOND
&lv_5=14
&inote_5=(70)
{4},,,,
{16}1-3-7[8:1]/6h[16:3],,,7-5-1[8:1],1,,5,3-8[16:1]/7,,3,2,1-6[16:1]*pp4[8:1]/3,5h[8:1],,3q7[16:1]/7,1,,,3>7[8:1],5,,6,5-1[32:1]/3,4-8[32:1],3,,5,4,,,,,
{16}1-4[16:1]/6-1[16:1],,3/7-4-8[8:1],,1/6,,7,3-1-5[16:1],,7/4-8-6[16:1],,3,6,4,5,,
{16}8-5[16:1]/3-8[16:1],,6/2-5-1[8:1],,8/3,,2,6-8-4[16:1],,2/5-1-3[16:1],,6,3,5,4,,
{16}4-2-8[16:1]/8-6-4[16:1],,2/6-1-5[8:1],,4/8,,6,4-2-6[16:1],,7-1-4[16:1]/5,,4,5,7,5,,
{16}5-7-1[16:1]/1-3-5[16:1],,3/7,,1/5,,4/6,2/8-2[32:1],
{16}5h[16:23]/8x,8,8,8b-3[32:1],8x,8,8,8b-4[32:1],8x,8,8,8b-5[32:1],8x,8,8,8b-6[32:1],8x,8,8,8b>4[32:1],8x,8,8,8b,
{16}3bx/6bx,2b/7b,1bp8[16:1]/8b<1[16:1],1b/8b,
{128}1b/8b,2b/7b,3b/6b,4b/5b,
{64},,,,,,
{16},,
{16}1p4[8:1]/8<5[8:1],,4>1[8:1]/5,,1/8q5[16:1],,,,8,3-8[16:1],,6-1[16:1],,3-6[16:1]/7-2[16:1],5,6,4,3/7,,,4-6[32:1]/8-2[32:1],,2-4[32:1]/6-8[32:1],1/5,4/8,,2-6[32:1]/6-2[32:1],,2/6,2/6,2/6,,
{16}8q5[8:1]/1>4[8:1],,5<8[8:1]/4,,8/1p4[16:1],,,,1,8-6-4-2-8<8[4:1],,3h[16:6],,8,,,,,,5-2-8[8:1]/4h[8:1],5,5,,5/6,
{16}6,6,6-3[16:1]*v1[16:1],7/6,7/6,,6/7,,
{16}4q1[8:1]/5<8[8:1],,1>4[8:1]/8,,4/5p8[16:1],,,,5,2-5[16:1],,7-4[16:1],,2-7[16:1]/6-3[16:1],8,7,1-5[16:1],2/6,,4v6[16:1]/8v2[16:1],1,,2/6,4/8,
{24},
{96}8/1,E2,B2,B3,E4,,,,
{24}5,7h[12:1],,1h[12:1],,4,,,,
{256}A4,D4,A3,D3,A2,D2,A1,D1,A8,D8,A7,D7,A6,D6,A5,D5,
{16},
{8}1b/8b,
{256}A5,D6,A6,D7,A7,D8,A8,D1,A1,D2,A2,D3,A3,D4,A4,D5,
{16},
{8}8b/1b,
{128}1x,2x,3x,4x,5x,6x,7x,8x,
{16}1bhx[8:1]/5-2[16:1],,3b-7[16:1],,5<4[8:1],1,3,6,5,,,1v6[16:1]/8v3[16:1],2/7,,1h[16:1]/8h[16:1],,,,,
{16},1,1,1,
{64}1x,2x,3x,4x,5x,6x,7x,8x,1x,2x,3x,4x,5x,6x,7x,8x,1x,2x,3x,4x,5x,6x,7x,8x,1x,2x,3x,4x,5x,6x,7x,8x,1x,2x,3x,4x,5x,6x,7x,8x,
{16}1x,5-1[16:15]*-1[16:15],,5,,5h[16:15],
{4},,,,
{64}1/8-4[16:1],2/7,3/6,4/5,,,,,
{64}1-5[16:1]/8,2/7,3/6,4/5,,,,,
{64}1/8,2,3,,,,,,
{64}1/8,7,6,,8b,,,,
{16},
{16}1h[16:5],,8,6,2,4,,
{64}8/1-5[16:1],7/2,6/3,5/4,,,,,
{64}8-4[16:1]/1,7/2,6/3,5/4,,,,,
{64}8/1,7,6,,,,,,
{64}8/1,2,3,,1b,,,,
{16},
{16}8h[16:5],,1,3,7,5,,
{64}1v3[32:1]/8v6[32:1],2/7,3/6,4/5,,,,,
{64}1-5[32:1]/8-4[32:1],2/7,3/6,4/5,,,,,
{8}1/8,
{16}1/8,1b/8b,,
{16}4h[16:5],,5,7,3,1,,
{4}8-2[4:1],2-6[4:1],6-4[4:1],4>8[4:1],8<4[4:1],4>8[4:1],8<4[4:1],4,
{64}3x,2x,1x,8x,7x,6x,5x,4x,3x,2x,1x,8x,7x,6x,5x,4x,3x,2x,1x,8x,7x,6x,5x,4x,3x,2x,1x,8x,7x,,,,
{16}1-7-5[8:1]/8-6-4[8:1],,5-3-1[8:1]/4,,1/8q5[16:1],,,,8,3-8[16:1],,6-1[16:1],,3-6[16:1]/7-2[16:1],5,6,4,3/7,,4/8,4-6[32:1]/8-2[32:1],,2-4[32:1]/6-8[32:1],1/5,4/8,,2-6[32:1]/6-2[32:1],,2/6,2/6,2/6,,
{16}8-2-4[8:1]/1-3-5[8:1],,4-6-8[8:1]/5,,8/1p4[16:1],,,,1,8-6[16:1],2,2-6[16:1]/6,,8-4[16:1]/4-2[16:1],3,2,7,8/4,,8h[8:1]/1p7[8:1],1,1,,1,
{16}6,6,6-3[16:1]*v1[16:1],7/6,7/6,,6/7,,
{16}4-6-8[8:1]/5-7-1[8:1],,8-2-4[8:1]/1,,4/5p8[16:1],,,,5,2-5[16:1],,7-4[16:1],,2-7[16:1]/6-3[16:1],8,7,1-5[16:1],2/6,,4v6[16:1]/8v2[16:1],1,,2/6,4/8,
{24},
{96}8/1,E2,B2,B3,E4,,,,
{24}5,7h[12:1],,1h[12:1],,4,,,,
{8}2-6[16:1]/7-3[16:1],1-5[16:1]/8-4[16:1],2/7,1/8,
{16}1/5-2[16:1],6,3-7[16:1],2,5<4[8:1],1,3,6,5,4,,1v6[16:1]/8v3[16:1],2/7,3/6,,1/8,,,,,
{16},4,4,4,
{64}4x,3x,2x,1x,8x,7x,6x,5x,4x,3x,2x,1x,8x,7x,6x,5x,4x,3x,2x,1x,8x,7x,6x,5x,4x,3x,2x,1x,8x-4[32:1],7x,6x,5x,4x,3x,2x,1x,8xw4[32:1],7x,6x,5x,4x,3x,2x,1x,
{16}8x<1[16:15],,8,,8h[16:15],
{4},,,,
{64}8/1-5[16:1],7/2,6/3,5/4,,,,,
{64}8-4[16:1]/1,7/2,6/3,5/4,,,,,
{64}8/1,7,6,,,,,,
{64}8/1,2,3,,1b,,,,
{16},
{16}8h[16:5],,1,3,7,5,,
{64}1/8-4[16:1],2/7,3/6,4/5,,,,,
{64}1-5[16:1]/8,2/7,3/6,4/5,,,,,
{64}1/8,2,3,,,,,,
{64}1/8,7,6,,8b,,,,
{16},
{16}1h[16:5],,8,6,2,4,,
{64}8v6[32:1]/1v3[32:1],7/2,6/3,5/4,,,,,
{64}8-4[32:1]/1-5[32:1],7/2,6/3,5/4,,,,,
{8}8/1,
{16}8/1,8b/1b,,
{16}5h[16:5],,4,2,6,8,,
{4}1-7[4:1],7-3[4:1],3-5[4:1],5<1[4:1],1>5[4:1],5<1[4:1],1>5[4:1],5,
{64}6x,7x,8x,1x,2x,3x,4x,5x,6x,7x,8x,1x,2x,3x,4x,5x,6x,7x,8x,1x,2x,3x,4x,5x,6x,7x,8x,1x,,,,,
{1},,,,,,,
{2},1b,
