&title=Endless Story
&artist=田村ゆかり
&first=0.03
&des=xxhb
&lv_1=4
&lv_5=12+
&inote_5=(187)
{999}
,
(75)
{64}
,
{16}
,
{8}
4,5,
(79)
{8}
2x>7[8:3]/7x,,8,,1,,
25,3,47,5,16,7,8/3h[8:3],,1,8,
7x<2[8:3]/2x,,1,,8,,7,6,53,24,13,82,7h[8:5]/Cf,,,,,
(187)
{16}
5x,4,3,2,8x,7,6,5,
4x/3b-7[8:1],,,,6,,,,
6x-2[8:1],,3,,3,,,,
1-4[8:1]/4-7[8:1],,,,14,,,,
1,,28,,7h[4:1]/3,,,,5-2[8:1],,,,8-5[8:1],,,,3-8[8:1],,,,7-3[8:1],,,,1x-6[8:1],,2,,1x-5[8:1],,,,1x>7b[4:1],,,,1bx,,,,
1x-5[8:1],,,,4,,,,8-4[8:1],,5,,3,,,,
1-5[8:1]/2-5[8:1],,,,21,,,,3,,2,,18,,7,,56,,56,,47,,47,,38,,2,1,2,,8b/3-7[8:1],,,,73,,6,,5bh[4:1],,
{32}E4,E3,E2,E1,E8,E7,E6,E5,3x,2x,1x,8x,7x,6x,5x,4x,
{16}
3x/7xh[4:1],,,,5,,5,,4h[4:1],,,,6,,6,,7h[4:1]/5,,,,4,,3h[4:1]/4,,,,4,,2/5h[4:1],,,,
3h[4:1],,,,4,,4,,5h[4:1],,,,3,,3,,2h[4:1]/4,,,,5,,6h[4:1]/5,,,,5,,74,,7,8,
7h[4:1],,,,8,,8,,1h[4:1],,,,7,,7,,6h[4:1],,,,1,,8/2h[4:1],,,,1,,3/8h[4:1],,,,
2h[4:1],,,,1,,1,,8h[4:1],,,,2,,2,,3,,4,,5,,6,,
1,7,1,7,2x,6,3x,5,
4h[4:1],,,,5,,5,,2,,1>3[10:1],,,,1,,6<8[10:1],,,,6,,4>2[10:1],,,,4,,7<5[10:1],,7,,7/1h[4:1],,,,4<7[8:1],,,,4,,1>4[8:1],,,,1,,6<1[8:1],,,,6,,3<6[8:1],,,,3,,8,,8,,8b/1h[8:3],,,,
3,,3,,1,,8p4[8:1],,,,8,,3>8[10:1],,,,3,,5q1[8:1],,,,5,,2>5b[8:1],,,,
2x/8<5[4:1],,,,5x>2[4:1],,,,2<7[4:1],,,,7<4[8:2],,,,4>2[16:3]*pp5[16:4],,,,,,,,
1,,8,,2xb/7xb,,,,
1/8xbh[4:1],,,,6,,7,,1h[4:1],,,,3,,2,,8h[8:3],,7<2[8:3],,,,,,,,8,,7,,6,,
5h[4:1]/1b,,,,7,,5,,4h[4:1],,,,3<6[8:1],,,,1,,1h[4:1],,,,7<3[4:1]*>3[4:1],,,,,,,,,,
1xbh[4:1]/4x,,,,8,,2,,4h[4:1],,,,1,,7,,5h[8:1],,4q8[8:1],,,,1q5[8:1],,,,6,,7,,8,,
1<6[8:1]/2,,,,3,,4-8[8:1],,5,,5,,7<4[8:1],,,,2,,
1-5[8:1],,,,7,,8-4[8:1],,8,,3>8[8:1],,3,,
5,,5,,35,,4,,47,,6,,16,,3,,
1b/8b,,7b/2b,,3b/6b,,,,,,,,
{32}
6/3,5,4,3,2,1,8,7,
{16}
6/5xb>2[8:1],,,,6,,7,,
2xv5[8:1]/8,,8,,8,,,,
5x>2[8:1]/6,,,,6,,7,,
8<5[8:1]/1,,,,1,,2,,3xb>6b[4:1],,,,6xb>1b[4:1],,,,1xb<4b[4:1],,,,4xb>7b[4:1],,,,7xb<2b[4:1],,,,5xh[4:1],,,,1x,8,7,6,5,4,3,2,
5x>2[8:1]/1,,,,6,,7,,
8/2xv5[8:1],,8,,8,,,,
4x<7[8:1]/3,,,,4>1[8:1],,,,4-8[8:1],,,,4>5b[8:3],,,,8x,,,,,,,,4h[8:3],,,,1<3b[16:5],,2xhb[8:5],,,,,,,,,,8,1,2,3,4,5,6,7,
1x<6[8:1]/8,,,,2,,3,,4v7[8:1]/2,,2,,2,,,,
1<6[8:1]/2,,,,2,,3,,
4>1[8:1]/5,,,,8,,7,,6xb<3b[4:1],,,,3xb<8b[4:1],,,,8xb>5b[4:1],,,,5xb<2b[4:1],,,,2xb>7b[4:1],,,,4xh[4:1],,,,8x,1,2,3,4,5,6,7,
8x>3[8:1]/1x,,,,7,,6,,5v2[8:1]/7,,7,,7,,,,
8>3[8:1]/7,,,,6/8<5[8:1]*p4[8:1],,,,8x,,,,1x,,4,,35,,35,,46,,46,,2b/5b,,4b/7b,,1b/6b,,3b/8b,,,,12,,38,,47,,
6/5x,4,3,2,8x,7,6,5,
4xq1[8:1]/3,,,,2,,,,5p8[8:1]/6,,7,,7,,,,2>5[8:1]/4-8[8:1],,,,24,,,,8x,,17,,2h[4:1]/6,,,,1<6[8:1],,,,5p1[8:1],,,,8p4[8:1],,,,3>8[8:1],,,,6>3[8:1]*p2[8:1],,7,,6xpp1[8:3],,,,4x,,,,3x,,,,
2x/1x>5[8:1],,,,17,,,,7/8<4[8:1],,1,,28,,,,8-4[8:1]/2>5[8:1],,,,82,,,,5x,,6,,7h[4:1]/8,,,,
1,,64,,8,,35,,4,5,3,6,2,7,8xh[8:26]/1xb<3<1<3b[8:24],,{1},,,,,E
