&title=Catastrophe
&artist=Powerless
&first=0.165
&lv_5=14+
&des_5=altostratus
&inote_5=
(100){4}4bpp5>6pp7[2:3]/8bpp1<2pp3[2:3],,,,,,,,{8}1h[8:3]/5<6-8[8:1],
{16}4,4,{4},{8}5h[8:3]/1>2-4[8:1],{16}8,8,{4},{8}3h[4:1],
B2/E2,6h[4:1],B7/E8,1h[16:3],8h[16:1],{32}2,4,3,5,4,6,5,7,
{1}1h[32:31]/5h[32:31],
1bh[32:31]/5bh[32:31],
{8}1/5-2[16:1],7/3,5/1-6[16:1],7/3,5/1-4[16:1],3/7,1/5,7/3,
5/4,6/3,7/2,8/1,{32}2,4,3,5,4,6,5,7,2-5[16:1],5,2,5,4,7,4,7,
{16}2b,6,6-1[16:1],4,3,3,6/5,3,4-8[16:1],5,6-2[16:1],5,{8}3/4,7/6,
4/5<8[16:1],{16}3,3-6[16:1],{8}5/4,{16}2>5[16:1],2/3,,7,8/2,1,{32}7-4[16:1],4,7,4,5,2,5,2,
{16}7b,3,3-8[16:1],5,6,6,3/4,6,5-1[16:1],4,3-7[16:1],4,{8}5/6<3b[8:1],2/3,
{16}6b/A7f,6,6<3b[8:1],7,7,7,6b/A7f,6,6,7,7,7,{32}3-8[16:1],8,3,8,1,6,1,6,
{16}3b,7,7-4[16:1],1,2,2,7/8,2,1-5[16:1],8,7-3[16:1],8,{8}2/1,6/7,
1/8<5[16:1],{16}2,2-7[16:1],{8}8/1,{16}3>8[16:1],3/2,,6,5/3,4,{32}6-1[16:1],1,6,1,8,3,8,3,
{16}6b,2,2-5[16:1],8,7,7,2/1,7,8-4[16:1],1,2-6[16:1],1,{8}8/7<2b[8:1],3/2,
{16}7b/A6f,7,7<2b[8:1],6,6,6,7b/A6f,7,7,6,6,6,{32}D5,A6,D8,A1,D3,A4,D6,A7,
{8}D1f/5b>1[8:1],{64}6/4h[16:1],7,{32}8,{16},{32}1/5,8,7,6,{16}5,3x/B7/A7/E7,3>7[8:1],4,5/7<6q4[8:1],6,{4}3/5h[8:1],
{16}7,8,{8}1h[16:1]/C,{48}8/2,7/3,6/4,5,{24},{16}7/3,1x/C,{8}5,{48}6/4,7/3,8/2,1,{24},{32}5,5,5,5,5,5,5,5,
{16}5b<1[8:1],4,3,4,{32}7h[16:1]/D6,D7,D8,D1,{16}5/D2,4x,{8}3/5h[16:1],7/1h[16:1],{16}5-2b[16:1],6,7,4x-7b[16:1],
{8}2/5,{16}5x-1b[16:1],4/7,,4x-8b[16:1],{8}5/1,{16}5x,{48}8x/4,7x,6x,{8}5bxh[16:1],{32}2,4,3,5,4,6,5,7,
{8}1bv4>8[4:1],B7/B8/B2/B3,{16}4,6,8,6x,{8}5v8<4[4:1],B4/B3/B6/B7,{16}2,3,{8}4w8[16:1],
{4}2xh[16:1],{48}1x,2,3,4/8x,7,6,{16}5/E3/B2/B3,E7/B7/B6,{8}4>4b[4:1]*>5b[32:7]*>6b[16:3]*>7b[32:5],{64}A4/A8,E5/E1,B5/B1,B6/B2,{16}E7/E3,{32}7x,6,5,4,3,2,1,8,
{4}D4f/E4/A3/7bx>2[32:3],4xh[8:1]/7x<4[32:3],{8}2xh[8:1]/7x-2[32:3],{16}7,7,{8}5xh[8:1]/7x-4[32:3],7x,
7x/2x-7[32:3],2,5x/2x-5[32:3],{16}5,5,6x/2x,7,{8}7h[8:1],{32}2p5p8p3p6p1p4p7p2<2b[4:15],4,3,5,4,6,5,7,
{1}Cf,
,,,{16}7h[4:3]/B3,
B4,{8}B5,{16}E3,E4,{8}E5,{16}A2,A3,{8}A4,{16}D2,D3,{8}D4,
{16}2h[4:3]/B6,B5,{8}B4,{16}E7,E6,{8}E5,{16}A7,A6,{8}A5,{16}D8,D7,{8}D6,
{16}4/1,2,5/8,7,4/1,3,5/8,6,4/1,4,5/8,5,4/8,6/2,{32}2,3,4,5,
{16}6/8w4[16:1],4/2,,7/1,{8}8b,{16}6/2,6/2,{32}2,3,4,5,7,6,5,4,2,4,3,5,4,6,5,7,
{16}2b-5[16:1],8,8-4[16:1],2,2-6[16:1],8,8-5[16:1],2,2>5[16:1],8,8<5[16:1],2,2,8,8,1,
{8}1q5[8:1],{16}3/5v2[16:1],2/6,{8}7/1<5[8:1],{16}8,8,{8}1,1h[8:1],{32}6,8,7,1,8,2,1,3,
{16}6b-1[16:1],4,4-8[16:1],6,6-2[16:1],4,4-1[16:1],6,6<1[16:1],4,4>1[16:1],6,6pp4b[4:1],4,4,5,
6b,4,3qq5b[4:1],2,3,3,3b,5,6,7,7,6,{32}7,5,6,4,5,3,4,2,
{16}7b-4[16:1],1,1-5[16:1],7,7-3[16:1],1,1-4[16:1],7,7<4[16:1],1,1>4[16:1],7,7,1,1,8,
{8}8p4[8:1],{16}6/4v7[16:1],7/3,{8}2/8>4[8:1],{16}1,1,{8}8,8h[8:1],{32}3,1,2,8,1,7,8,6,
{16}3b-8[16:1],5,5-1[16:1],3,3-7[16:1],5,5-8[16:1],3,3>8[16:1],5,5<8[16:1],3,3qq5b[4:1],5,5,4,
3b,5,6pp4b[4:1],7,6,6,6b,4,3,2,3,3,{32}3,4,5,6,7,8,1,2,
{8}3bh[16:1]/B8/E8h[16:1],4h[16:1]/D8/E8h[16:1],2h[16:1]/B8/E8h[16:1],5h[16:1]/D8/E8h[16:1],1h[16:1]/B8/E8h[16:1],6h[16:1]/D8/E8h[16:1],1h[16:1]/B8/E8h[16:1],5h[16:1]/D8/E8h[16:1],
2h[16:1]/B8/E8h[16:1],4h[16:1]/D8/E8h[16:1],3h[16:1]/B8/E8h[16:1],4h[16:1]/D8/E8h[16:1],2h[16:1]/B8/E8h[16:1],5h[16:1]/D8/E8h[16:1],{32}1,2,3,4,6,5,6,5,
{16}6bh[16:1],B1/E2h[16:1],5h[16:1],D2/E2h[16:1],7h[16:1],B1/E2h[16:1],4h[16:1],D2/E2h[16:1],8h[16:1],B1/E2h[16:1],3h[16:1],D2/E2h[16:1],8h[16:1],B1/E2h[16:1],4h[16:1],D2/E2h[16:1],
7h[16:1],B1/E2h[16:1],5h[16:1],D2/E2h[16:1],6h[16:1],B1/E2h[16:1],5h[16:1],D2/E2h[16:1],7h[16:1],B1/E2h[16:1],4h[16:1],D2/E2h[16:1],{32}8,7,6,5,3,4,3,4,
{16}3qq3[8:1],5,3-5[16:1],6,{8}7/3,7,{16}6pp6[8:1],4,6-4[16:1],3,{8}2/6,2,
{16}2pp2[8:1],8,2-8[16:1],7,{8}6/2,6,{16}7qq7[8:1],1,7-1[16:1],2,{8}3/7,3,
{16}4/2,3,4,5,3/1,2,3,4,5/7,6,5,4,6/8,7,6,5,
2/4,1,5/7,8,3/1,4,8/6,5,{32}1,2,3,4,8,7,6,5,2,4,2,5,4,7,5,7,
{8}4b<8[8:1],{64}3/5h[16:1],2,{32}1,{16},{32}8/4,1,2,3,{16}4,6x/B2/A2/E3,6<2[8:1],5,4/2>3p5[8:1],3,{4}6/4h[8:1],
{16}2,1,{8}8h[16:1]/C,{48}1/7,2/6,3/5,4,{24},{16}2/6,8x/C,{8}4,{48}3/5,2/6,1/7,8,{24},{32}4,4,4,4,4,4,4,4,
{16}4b>8[8:1],5,6,5,{32}2h[16:1]/D4,D3,D2,D1,{16}4/D8,5x,{8}6/4h[16:1],2/8h[16:1],{16}4-7b[16:1],3,2,5x-2b[16:1],
{8}7/4,{16}4x-8b[16:1],5/2,,5x-1b[16:1],{8}4/8,{16}4x,{48}1x/5,2x,3x,{8}4bxh[16:1],{32}7,5,6,4,5,3,4,2,
{8}8bv5<1[4:1],B2/B1/B7/B6,{16}5,3,1,3x,{8}4v1>5[4:1],B5/B6/B3/B2,{16}7,6,{8}5w1[16:1],
{4}7xh[16:1],{48}8x,7,6,5/1x,2,3,{16}4/E7/B7/B6,E3/B2/B3,{8}5<5b[4:1]*<4b[32:7]*<3b[16:3]*<2b[32:5],{64}A5/A1,E5/E1,B4/B8,B3/B7,{16}E3/E7,{32}2x,3,4,5,6,7,8,1,
{4}D6f/E6/A6/2bx<7[32:3],5xh[8:1]/2x>5[32:3],{8}7xh[8:1]/2x-7[32:3],{16}2,2,{8}4xh[8:1]/2x-5[32:3],2x,
2x/7x-2[32:3],7,4x/7x-4[32:3],{16}4,4,3x/7x,2,{8}2h[8:1],{32}D5,A3,D2,A8,D7,A5,D4,A2,
{8}4b/D1f,3,5/2,{16}6,6,7/4-8[16:1],6,{8}6-1[16:1],{4},{8}2,
2,4/2,{16}7,7,5/7-2[16:1],5,{8}5-1[16:1],{4},{8}6,
6,5/2,{16}3,3,6/4-7[16:1],5,{8}5-1[16:1],{4},{8}8,
8,7/5,{16}1,1,4/2-7[16:1],5,{8}5-1[16:1],{4},{8}4b,
3,5/2,{16}6,6,7/4-8[16:1],6,{8}6-1[16:1],{4},{8}2,
2,4/2,{16}7,7,5/7-2[16:1],5,{8}5-1[16:1],{4},{8}6,
6,5/2,{16}3,3,6/4-7[16:1],5,{8}5-1[16:1],{4},{8}8,
8,7/5,{16}1,1,4/2-7[16:1],5,{8}5-1[16:1],{4},{1}7bh[1:1]/3bh[1:1],
B7h[1:1]/B6h[1:1]/E7h[1:1]/B2h[1:1]/B3h[1:1]/Cfh[1:1]/E3h[1:1],
E
