&title=Louie Zong
&artist=Rhythm Hell
&first=0.75
&des=(120){64},,,,
&lv_7=觉 13+?
&inote_5=
&inote_7=(120)
{1},
{4}4,5,4,5,
{4}4b,5b,4b,5b,
{8}4,,4,5,4,,4,,
{8}4b,,4b,5b,4b,,4b,,
{8}4,5,4,,4,5,4,,
{8}4b,5b,4b,,4b,5b,4b,,
{16}4,5,,5,4,,4,,4,5,,5,4,,4,,
{16}4b,5b,,5b,4b,,4b,,4b,5b,,5b,4b,,4b,,
{16},,4,,{12}36,5,4,
{16},,4,5,
{12}36,5,4,
{16},,4b,,{12}3b/6b,5b,4b,
{16},,4b,5b,
{12}3b/6b,5b,4b,
{16},,4,,,,4,5,
{10}36,5,4,5,4,
{16},,4b,,,,4b,5b,
{10}3b/6b,5b,4b,5b,4b,
{9}45,45,45,45,45,45,45,45,45,
{9}4b/5b,4b/5b,4b/5b,4b/5b,4b/5b,4b/5b,4b/5b,4b/5b,4b/5b,
{10},4,,4,,
{12},5,,5,,5,
{10},4b,,4b,,
{12},5b,,5b,,5b,
{32}5,,4,,5,,4,,5,,4,,5,,4,5,
{32}4,,5,,4,,5,,4,,5,,4,5,
{64}4,5,4,5,
{32}5b,,4b,,5b,,4b,,5b,,4b,,5b,,4b,5b,
{32}4b,,5b,,4b,,5b,,4b,,5b,,4b,5b,
{64}4b,5b,4b,5b,
{16},,,,,,,,,,,,,,,4,
{16},,,,,,,,,,,,,,,5,,,
4b,,,,,,,,,,,,,,
{16},,,,,,,,,,,,,,,,,,,,,,,,,,,5,
