&title=[協] Angelic Layer 名人
&artist=SHIKI / air
&first=0
&des=air optimised by AZVW_2
&freemsg=
&wholebpm=146
&des_1=
&des_2=
&des_3=
&des_4=
&des_5=
&des_6=air optimised by AZVW_2
&lv_1=
&lv_2=
&lv_3=
&lv_4=
&lv_5=
&lv_6=25
&inote_1=
&inote_2=
&inote_3=
&inote_4=
&inote_5=
&inote_6=(146){16},,,,,,,,,,,,,,,,
(146){16}37,3,36,3,38,3,36,3,37,3,36,3,38,3,36,3,
(146){16}37,3,36,3,38,3,36,3,37,38,36,3,38,3,36,3,
(146){16}37,3,36,3,38,3,36,3,37,3,36,3,38,3,36,3,
(146){16}37,3,36,3,38,3,36,3,37,38,36,3,38,3,38,38,
(146){16}1,,,,,,,,,,,,,,,,
(146){16},,,,,,,,,,,,,,,,
(146){16},,,,,,,,,,,,,,,,
(146){16}2,,,,,,,,,,,,,,,,
(146){16}16,1,1,16,1,1,15,1,14,1,1,15,1,1,15,1,
(146){16}17,1,1,17,1,1,16,1,15,1,1,16,1,1,16,1,
(146){16}18,1,1,18,1,1,17,1,16,1,1,17,1,1,17,1,
(146){16}15,1,1,15,1,1,14,1,13,1,1,13,1,1,13,1,
(146){16}16,1,1,16,1,1,15,1,14,1,1,15,1,1,15,1,
(146){16}17,1,1,17,1,1,16,1,15,1,1,16,1,1,16,1,
(146){16}17,18,17,18,16,15,16,15,17,18,17,18,16,15,16,15,
(146){16}16,1,1,1,16,1,1,1,16,1,1,16,16,1,16,1,
(146){16}85,8,8,8,83,8,8,8,85,8,84,8,8,8,83,8,
(146){16}82,8,8,8,83,8,8,8,8,83,82,8,8,8,84,8,
(146){16}85,8,8,8,83,8,8,8,84,8,86,8,8,8,82,8,
(146){16}83,8,8,8,84,8,8,8,85,86,84,8,82,8,82,82,
(146){16}85,8,8,8,83,8,8,8,85,8,84,8,8,8,83,8,
(146){16}82,8,8,8,83,8,8,8,8,83,84,8,8,8,82,8,
(146){16}81,8,8,8,83,8,8,8,82,8,8,8,83,8,86,85,
(146){16}81,82,83,84,82,83,84,85,83,84,85,82,82,83,82,83,
(146){16}14,1,1,1,16,1,1,1,14,1,15,1,1,1,16,1,
(146){16}17,1,1,1,16,1,1,1,1,16,17,1,1,1,15,1,
(146){16}14,1,1,1,16,1,1,1,15,1,13,1,1,1,17,1,
(146){16}16,1,1,1,15,1,1,1,14,13,15,1,17,1,17,17,
(146){16}14,1,1,1,16,1,1,1,14,1,15,1,1,1,16,1,
(146){16}17,1,1,1,16,1,1,1,1,16,15,1,1,1,17,1,
(146){16}18,1,1,1,16,1,1,1,17,1,1,1,16,1,13,14,
(146){16}18,17,16,15,17,16,15,14,16,15,14,17,17,15,17,16,
(146){16}26,3,26,35,26,35,2,35,2,36,2,36,26,37,28,31,
(146){16}27,3,27,36,27,36,2,36,2,37,2,37,26,35,26,35,
(146){16}24,3,24,35,24,35,2,35,2,36,25,36,27,36,27,36,
(146){16}28,3,28,37,28,37,2,37,2,38,2,37,26,3,26,35,
(146){16}26,3,26,35,26,35,2,35,2,36,2,36,26,37,28,31,
(146){16}27,3,27,36,27,36,2,36,2,37,2,37,26,35,26,35,
(146){16}24,3,24,35,24,35,2,35,2,36,25,36,27,36,27,36,
(146){16}28,3,28,37,28,37,2,37,2,38,2,37,26,3,27,37,
(146){16}27,3,27,37,27,37,2,37,2,37,2,36,26,37,28,31,
(146){16}28,3,28,38,28,38,2,38,2,37,2,37,26,36,25,35,
(146){16}26,3,26,36,26,36,2,35,2,36,26,3,27,37,28,38,
(146){16}25,3,25,35,25,35,2,37,2,37,2,38,28,3,27,37,
(146){16}27,3,27,37,27,37,2,37,2,37,2,36,26,37,28,31,
(146){16}28,3,28,38,28,38,2,38,2,37,2,37,26,36,25,35,
(146){16}26,3,26,36,26,36,2,35,2,36,26,3,27,37,28,38,
(146){16}25,3,25,35,25,35,2,37,2,37,2,38,28,3,27,37,
(146){16}18,1,1,1,17,1,1,1,16,1,1,1,18,1,17,1,
(146){16}1,1,16,1,1,1,18,1,17,1,16,1,15,1,1,1,
(146){16}18,1,1,1,17,1,1,1,16,1,1,1,18,1,17,1,
(146){16}1,1,16,1,1,1,18,1,17,1,16,1,15,1,13,13,
(146){16}16,,6,,26,,6,,36,,6,,16,,26,,
(146){16}6,,36,,6,,16,,26,,36,,26,,6,,
(146){16}36,,6,,46,,6,,36,,6,,26,,16,,
(146){16}6,,46,,36,,26,,16,,26,,36,,27,27,
(146){16}17,,7,,27,,7,,3,,6,,16,,26,,
(146){16},,37,,7,,17,,2,8,38,,48,,8,,
(146){16}1,,7,,27,,7,,3,,6,,16,,26,,
(146){16},,37,,7,,17,,2,8,38,,48,,8,,
(146){16}1,,7,,27,,7,,3,,6,,16,,26,,
(146){16},,37,,7,,17,,2,8,38,,28,,8,,
(146){16}3,,7,,47,,7,,3,,6,,26,,16,,
(146){16}5,,47,,37,,27,,1,8,28,,38,,47,7,
(146){16}18,,,,,,,,,,,,,,,,
(146){16},,,,,,,,,,,,,,,,
(146){16},,,,,,,,,,,,,,,,
(146){16}2,,,,,,,,,,45,45,45,,,,
(146){16}38,8,8,8,16,1,1,1,8,8,48,8,1,1,15,1,
(146){16}48,8,8,8,16,1,1,1,8,38,48,8,1,1,15,1,
(146){16}48,8,8,8,16,1,1,1,8,8,48,8,1,1,15,1,
(146){16}38,8,8,8,16,1,1,1,48,58,38,8,16,1,16,16,
(146){16}38,8,8,8,16,1,1,1,8,8,48,8,1,1,15,1,
(146){16}48,8,8,8,16,1,1,1,8,38,48,8,1,1,15,1,
(146){16}48,8,8,8,16,1,1,1,28,8,8,8,1,1,15,14,
(146){16}38,38,28,28,15,15,16,16,38,38,48,48,15,15,16,16,
(146){16}25,5,5,5,47,4,4,4,5,5,15,5,4,4,48,4,
(146){16}15,5,5,5,47,4,4,4,5,25,15,5,4,4,48,4,
(146){16}15,5,5,5,47,4,4,4,5,5,15,5,4,4,48,4,
(146){16}25,5,5,5,47,4,4,4,15,85,25,5,47,4,47,47,
(146){16}25,5,5,5,47,4,4,4,5,5,15,5,4,4,48,4,
(146){16}15,5,5,5,47,4,4,4,5,25,15,5,4,4,48,4,
(146){16}15,5,5,5,47,4,4,4,35,5,5,5,4,4,48,41,
(146){16}7,2,6,3,5,4,6,3,7,2,8,1,7,2,6,3,
(146){16}58,15,5,15,25,5,25,35,57,58,5,58,15,5,15,25,
(146){16}57,58,5,58,15,5,15,25,85,15,5,15,25,5,25,35,
(146){16}14,15,1,15,16,1,16,17,13,14,1,14,15,1,15,16,
(146){16}13,14,1,14,15,1,15,16,14,15,1,15,16,1,16,17,
(146){16}2,1,8,4,5,6,3,7,4,5,6,2,1,8,3,7,
(146){16}2,3,4,8,7,6,1,5,2,3,4,8,7,6,1,5,
(146){16}8,1,2,6,5,4,7,3,6,5,4,8,1,2,7,3,
(146){16}8,7,6,2,3,4,1,5,8,7,6,2,3,4,1,2,
(146){16}18,,,,,,,,,,,,,,,,
