&title=First Snow
&artist=黒魔
&first=0
&des=B(@A@)D
&clock_count=4
&lv_5=12+
&inote_5=(88){1},
{4}3h[4:1],B6,6h[4:1],B3,
3h[4:1],B5,6h[4:1],B4,
{16}4x/5x,,,2,1>4[8:1],,6,7h[8:1],,,,5,6<1[8:1],,2h[4:1],,
,,,,3,4,5,6h[16:3],4v7[8:1],,2h[8:1],,4,B3,B1,,
4x/5x,,,7,8<5[8:1],,3,2h[8:1],,,,4,3v8[8:1],,7h[4:1],,
,,,,E1,E7,E2,E8,E3,E5,E4,E6,C,E5,E1,,
4x/5x,,,3,2>5[8:1],,7,8h[8:1],,,,1,3p7[8:1],,6h[4:1],,
,,,,1,3,5,7h[16:3],5-1[8:1],,3h[8:1],,5,B4,B2,,
4x/5x,,,6,7<4[8:1],,2,1h[8:1],,,,8-4-2[16:3],8,,5h[4:1],,
,,,,D1,D7,D2,D8,D3,D5,D4,D6,C,E1,E5,,
{8}3>7>3[8:5]/6h[4:1],,,5h[2:1],,,,,
6<3>6[8:5]/4h[4:1],,,5h[2:1],,,,,
2>6>2[8:5]/7h[4:1],,,1h[2:1],,,,,
5<2<5[8:5]/3h[4:1],,,4h[2:1],,,,,
1s5s1[8:5]/7h[4:1],,,6h[2:1],,,,,
7s3s7[8:5]/1h[4:1],,,2h[2:1],,,,,
{24}4h[2:1],,,,,,E5,E6,E7,E8,E1,E2,D3,D4,D5,D6,D7,D8,Ch[4:3]/D1f,,,,,,
{1},
{16}4x/5x,,,,2,3-1q5v8[16:5],4,5,6h[8:1],,,,A7,,B6,,
4xh[8:1]/5xh[8:1],,,,3qq8[8:3],4,5,6,7<4[8:1],,7,,7,,,,
4xh[8:1]/5xh[8:1],,,,3,4pp1>3[16:5],5,6,7h[8:1],,,,E1,,B7,,
{16}2,3/5,4/6h[8:3],,{24}E6,E7,E8,E1,E2,E3,D4,D5,D6,D7,D8,D1,C/D2f,,,,,,
{16}5x/4x,,,,7,6-8v5p1[16:5],5,4,3h[8:1],,,,A2,,E4,,
5xh[8:1]/4xh[8:1],,,,6pp1[8:3],5,4,3,2-5[8:1],,2,,2,,,,
5xh[8:1]/4xh[8:1],,,,6,5V37[16:3],4,3,2h[8:1],,,,1hb[8:1],,8hb[8:1],,
6z2>1[16:7],5/7,4h[16:11]/6,,,,,,,,,,,1,3,8,
2,1,3,8,4,7,5,6,8,7,1,6,2h[8:1],,5h[8:1],,
3,4/6,5pp5qq5[2:1]/7h[8:7],,,,,,,,,,,,,,
A2,E2,E1,A8,E3,B2,B8,E8,E4,B4,B6,E7,A4,E5,E6,A6,
A1,E1,E8,A7,E2,B1,B7,E7,E3,B3,B5,E6,A3,E4,E5,A5,
A8,E8,E7,A6,E1,B8,B6,E6,E2,B2,B4,E5,A2,E3,E4,A4,
A7,E8,E1,A1,E7,B7,B1,E2,E6,B5,B3,E3,A5,E5,E4,A3,
A7,E8,E1,A1,E7,B7,B1,E2,E6,B5,B3,E3,A5,E5,E4,A3,
A8,E1,E2,A2,E8,B8,B2,E3,E7,B6,B4,E4,A6,E6,E5,A4,
A1,E2,E3,A3,B8,C,B4,A4,A7,E7,E6,A5,Chf[4:1],,,,
5b,,4b/5b,,2,3p8[16:5],4,5,6h[8:1],,,,A7,,C,,
4b/5b,,4b/5b,,6pp1[8:3],5,4,3,2-4[8:1],,2,,2,,,,
4b/5b,,4b/5b,,3,4pp1>3[16:5],5,6,7h[8:1],,,,E1,,B7,,
{8}4b-6-2-8[2:1]/5b-3-7-1[2:1],4b/5b,,,,,,{48},,,E1,B1,B2,
{4}B3/5xh[2:1],,3h[2:1],,
7h[4:3],,{64}E2,B1,B8,B7,,,,,,,,,,,,,B6,B5,B4,E4,,,,,,,,,,,,,
4xh[2:1]/E1,B8,B7,B6,,,,,,,,,,,,,{4},{64}E5,B5,B6,B7,,,,,,,,,,,,,{4}Cf,
{8}4,4,3/5,3/5,2/6,2/6,1-5b[16:1]/7-3b[16:1],3qq4[4:3]/5pp4[4:3],
{1}1b/7b,
{8}Ch[2:1],,,,5h[8:3],E4,C,E8,
{16}1b,7,5,7,3,7,5,7,2,6,4,6,3h[8:1],,7h[8:1],,
5pp1[4:1],4/6,3/5,,1pp4[4:1],2,3,,4<3[4:1],,,,3-1-7-5[4:1],,,,
{16}E5/E4/B4f,,,,4h[4:1],,,5,5,,3,,1qq5[32:11]/7,,,,
{24}2-4[32:3],,,,,,2,,,,,,6/3h[8:1],,,8,2,7,1h[8:1],,,5h[8:1],,,
{16}8b,6,4,6,2,6,4,6,1,7,5,7,3,2hb[16:3]/6b,,,
4pp8[4:1],3/5,4/6,,8>5[4:1],,,,7,,E7,,E8,,E1,,
2-5[8:1],,,,2/8,,,7,6-1[8:1],,5,,6/4,,,,
{24}3h[8:3],,,,,,E4,E3,E2,E1,E8,E7,D6,D5,D4,D3,D2,D1,C/D8f,,,,,,
{8}2-5[32:3]/8,4/6-1[32:3],2,6,{24}3xv8[32:3],8x,2x,{16}7x-4[32:3],6x,3,,7,,
1,2/8,3h[12:11]/7h[12:11],,,,,,,,,,,,,,
{24},,,,,,,6h[1:0],,,,,,,,,,,,5h[1:0],,,,,
{32},,,,,,,,,4h[1:0],,,,,,,,,,,,,,,3h[1:0],,,,,,,,
{4},2h[1:0],Chf[4:1],1h[1:0],
{1},,
E
