&title=ルマ
&artist=かいりきベア
&first=0.84
&des=Ragna
&wholebpm=154
&demo_seek=58.9
&demo_len=12.7
&des_5=Ragna
&lv_5=13
&inote_5=(154){8}
1h[8:1]/2h[8:1],,8h[8:1]/7h[8:1],,3h[8:1]/4h[8:1],{16},4h[8:1]/5h[8:1],{8},56,
7-4[8:1],,2-5[8:1],,8-4[8:1],,1b,,
2h[4:1],,3h[4:1],,4^1[8:1],{16},5,{8},7h[4:1],
,8,6,5,4h[4:1],{24}5,6,7,{8}8,2,
7h[4:1],,6h[4:1],,5^8[8:1],{16},4,{8},2h[4:1],
,1,3,4,5h[4:1],{24}4,3,2,{8}1,7,
2h[4:1],,4h[4:1],,5-1[8:1],{16},6,{8},8h[4:1],
,7,6,5,4h[4:1],{24}5,6,7,{8}8,2,
7h[4:1],,5h[4:1],,4-8[8:1],{16},3,{8},1h[4:1],
,2,3,4,5h[4:1],{24}4,3,2,{8}1,7,
2-5[8:1],2,6h[4:1],,4h[16:3],{16},3h[16:3],{8},2qq6[8:3],
,,,,,,17,,
6-1[8:1],6,2h[4:1],,8h[16:3],{16},7h[16:3],{8},6,
,{16}4,5,{8}4,36,2-5[8:1]/7-4[8:1],,27,,
3v8[8:1],3,7h[4:1],,6h[16:3],{16},5h[16:3],{8},4qq8[8:3],
,,,,,,18,,
7v4[8:1],7,3h[4:1],,2h[16:3],{16},1h[16:3],{8},8,
,{16}2,7,2,,{8}36,4-8[8:1]/5-1[8:1],,45,,
2-6[8:1],,7h[4:1],,8^3[8:1],{16},6,{8},5h[4:1],
,4,3,2,1h[4:1],{24}8,7,6,{8}5,3,
7-3[8:1],,2h[4:1],,1^6[8:1],{16},3,{8},4h[4:1],
,5,6,7,8h[4:1],{24}1,2,3,{8}4,6,
2V48[4:1],2,5,,7h[16:3],{16},6h[16:3],{8},5pp1[8:3]*pp8[8:3],
,,,,,,27,,
6V84[4:1],6,1,,3h[16:3],{16},2h[16:3],{8},1,
,{16}7,8,{8}7,16,2-4[12:1]/5-1[8:1],,25,,
8z4[4:1],8,4,,3h[16:3],{16},2h[16:3],{8},1pp5[8:3]*pp4[8:3],
,,,,,,36,,
4z8[4:1],4,8,,7h[16:3],{16},6h[16:3],{8},5,
,{16}3,4,{8}3,25,1-4[8:1]/6-1[8:1],,16,,
3h[8:7]/8h[8:7],,,,,,,,
2h[8:1]/7h[8:1],{16},1h[8:1]/6h[8:1],{8},8V25[4:1]/5,,6,7,8,
1<5[8:1],,3,,8>4[8:1],,6,,
7h[16:3],{16},8h[16:3],{8},1V75[16:3]*V35[16:3],,,,,
7h[8:7]/4h[8:7],,,,,,,,
6h[8:1]/3h[8:1],{16},5h[8:1]/2h[8:1],{8},4/1h[4:1],,8,27,,
3qq5[16:7]/6pp4[16:7],,,,,,,,
46,{16},78,{8},12,,,,,
2b-5[8:1],2,6,6,4h[8:3],8,8,8,
3,2,1pp5[16:5],{16}5,5,{8},,,,
6,6,{16}4qq8[16:5],4,,8,{8},,5b,,
7v4[8:1],,3,2,1-5[8:1],{16}5,5,{8},8,
7-4[8:1],7,3,3,5h[8:3],1,1,1,
6,7,8qq4[16:5],{16}4,4,{8},,,,
3,3h[16:5],4,{16}5^8[8:1],5,{8},4,3,2,
18,13,18,86,1s5[8:1]/8z4[8:1],,1b/8b,,
3-8[8:1]/6-1[8:1],,36,,2h[16:3],{16},3h[16:3],{8},4qq1[16:5],
,5,5,,8h[16:3],{16},7h[16:3],{8},6,
4-8[8:1]/5-1[8:1],,45,,7h[16:3],{16},6h[16:3],{8},5pp8[16:5],
,4,4,,1h[16:3],{16},2h[16:3],{8},3,
4-7[8:1]/5-2[8:1],,45,,1h[16:3],{16},8h[16:3],{8},7pp4[16:5],
,6,6,,5h[16:3],{16},3h[16:3],{8},2,
1-5[8:1]/8-4[8:1],,18,,6h[16:3],{16},7h[16:3],{8},8qq4[16:5],
,1,1,,3h[16:3],{16},2h[16:3],{8},1,
78,{16},64,{8},1^4[8:1]/5,,5,6,7,
85,{16},36,{8},2/4qq4[32:7]*pp4[32:7],,,,,
{1}2/6<3[2:3],
,
{8}4h[4:3],,,,,,8b,,
7-4[8:1]/3-8[8:1],,,,15,{16},26,{8},37,
8-4[8:1],8,3,3,5h[8:3],8,8,8,
6,7,8qq3[16:5],{16}4,4,{8},,,,
21,2,78,7,21,3,78,6,
45,24,45,75,4-8[8:1]/5-1[8:1],,45,,
2b-6[8:1],2,8,8,3h[8:3],4,4,4,
25,16,78,{16}1-5[8:1]/6-1[8:1],16,{8},,,,
84,73,{16}26,26,,4-8[8:1]/8,{8},,5b,,
6v1[8:1],,1,2,3^6[8:1],{16}6,6,{8},8,
7-3[8:1],7,1,1,6h[8:3],5,5,5,
74,83,12,{16}8-4[8:1]/3-8[8:1],83,{8},,,,
15,26,37,{16}8/4^1[8:1],84,{8},5,6,7,
18,24,18,75,1-5[8:1]/8-4[8:1],,18,,
36,27,18,{16}2/7v4[8:1],27,{8},4,3,2,
18,65,18,34,1-5[8:1]/8-4[8:1],,18,,
18,23,45,76,1s5[8:1]/8z4[8:1],,1b/8b,,
3-7[8:1],,6h[4:1],,5-1[8:1],{16},7,{8},
8^5[8:1],,1,2,3,4h[4:1],{24}5,6,7,{8}8,2,
6-2[8:1],,3h[4:1],,4-8[8:1],{16},2,{8},
1^4[8:1],,8,7,6,5h[4:1],{24}4,3,2,{8}1,7,
2-6[8:1],,8h[4:1],,1v4[8:1],{16},6,{8},
5^8[8:1],,4,3,2,1h[4:1],{24}8,7,6,{8}5,3,
7-3[8:1],,1h[4:1],,8v5[8:1],{16},3,{8},
4^1[8:1],,5,6,7,8h[4:1],{24}1,2,3,{8}4,6,
2h[8:1]/5h[8:1],,7h[8:1]/4h[8:1],,1h[8:1]/8h[8:1],{16},2h[8:1]/7h[8:1],{8},36,
{1}4b/5b,
E
