&title=徳川カップヌードル禁止令
&artist=KAITO、宁宁、宁宁萝卜、米库打油
&first=-0.616
&des=TragiC vs micavro
&des_5=TragiC vs micavro
&lv_5=14
&inote_5=(178){4},{1},,{4},,,
{8}2,2,7,7,3,3,6,6,
{16}4x,5x,3,6,2,7,1,8,2x,1x,3,8,4,7,5,6,
{8}4-1[8:1],6-1[8:1],4,6,2,{16}2>5[4:1],4,{8}2,2h[4:1],
,,,7-4[8:1],1-5[8:1],7-3[8:1],1,7,
,2,5,4,7,{16}7<4[4:1],5,{8}7,7h[4:1],
{16},,,,,,8,,1-6[8:1],,,2,1,,3,,
{16}4/5,,3,4,3,,6,5,6,,3,4,2,,6,5,7,,3,1,4,,6,5,8,,2,1,4,,7,8,5,,2,1,3,,7,8,6,,3,4,2,,1x/3x,,
{8},6x/8x,,3-6[8:1]/5-8[8:1],{2}3/5,
{4}2h[4:1],4h[4:1],5>1[4:1],{8}7,7h[4:1],
,8-2[8:1],,8-4b[8:1],6-4b[8:1],8b,6b,3hx[2:1],
,6<8[8:1],{4}6,3hx[2:1],{8}1<5[8:1],1,
,3hx[2:1],,4<2[8:1],{4}4,3,
8h[4:1],6h[4:1],4h[4:1],{8}2,2-5[8:1],
5,2-6[8:1],6,2,{4}8-6[8:1],{8}8-4[8:1],4,
8-3[8:1],3,{4}8,2/4,{8}5/7,5/7,
,1/8,1z5[8:1]/8-3[8:1],1/8,{2}1/8,
{12}4,6,6,3,5,5,2,4,4,1,3,3,
8>3[8:1],4,4,8-4[8:1],5,5,8-5[8:1],6,6,8,7,7,
3,3,3,4,4,4,5,5,5,6,6,6,
4-8[8:1],4,4,4w8[8:1]b,,,{2}4b,
{8}
2-6[8:1],2,4,7-4[8:1],7,,1,1,2,5,3,6-2[8:1]b,4-8[8:1]b,6b,4b,,
7-4[8:1],7,5,2-6[8:1],2,,8,8,7>2[8:1],,4,4,3b<6[8:1]b*>8[8:1]b,,3b,,
7v4[8:1],7,5,5,2q6[8:1],2,4,,{16}8>3[8:1],,,7,{8}8,6,5-8[8:1],4-1[8:1],5,4,
7-4[8:1],,7-3[8:1],3,7<4[8:1]*>2[8:1],,7,,3,3,2/4,2/4,1/5,1/5,6/8,8/6,
{4}7<4[8:1],3>8[8:1],6-3[8:1]*-8[8:1],6,
2>5[8:1],1<6[8:1],4v7[8:1]*v1[8:1],4,
6-3[8:1]/3,6/5-8[8:1],7-2[8:1]*-4[8:1]/5,7,
8-3[8:1]/3,8/2-5[8:1],2/4w8[8:1]b,4b,
{8}6-3[8:1],6,6/2-5[8:1],2,2/7-3[8:1],7,7/1,1,
{16}1,8,1,8,1,8,1,8,{8}1bw5[8:1],8b/2b,{4}1b,
{8}
3-8[8:1]/7-4[8:1],,3/7,,2-6[8:1],7-1-3-5[8:2],2,7,
,8,1,2,6<1[8:1]/3,5,4,3-8[8:1],
4,5h[8:1],,5,{16}6,5/7,,3,{8}2/4,8,
,7-3[8:1],3,7,1-5[8:1],5,1,7,
8<5[8:1]/4>1[8:1],,4/8,,8>2-4<6[8:2],7-3[8:1],8,7,
,1,8,7,3v8[8:1]/6,4,5,6v1[8:1],
6,5,4,4,{16}3,2/4,,7,{8}6/8,2,
,8-6[8:1],1-5[8:1],8-4[8:1],1-3[8:1],8,1,,
1/5-8[8:1],,5/1-4[8:1],2,1/7-4[8:1],,7/1-5[8:1],8,7<4[8:1]/1,,7/8>3[8:1],1,8/5v8[8:1],,5/2-5[8:1],3,7-2[8:1]/2,,7/5-1[8:1],4,5/8<5[8:1],,8/2>5[8:1],1,2/8<5[8:1],,8-4[8:1]/4,,8>3[8:1]b/3,,8-5[8:1]/5,,8v3[8:1]b/3,,8<5[8:1]/5,,8/4,,1,1h[4:1],,2-6[8:1],2,3-7[8:1],3,4,4,,
{16}7b/4b,,6,5,7,,7/4,,2b/5b,,3,4,2,,2/5,,
8b/B3f,,,1b/B6f,,,{8}2b-5<6[8:1]b/4b,2b/4b,,7b,,
{12}1,1,5,2,2,6,3,3,7,4,4,8,
{4}5h[4:1],3h[4:1],1h[4:1],7h[4:1],
5h[4:2],4,1h[4:2],8,
5h[4:1],7h[4:3],8,{8}6,6,
{4}6h[4:2],8,5h[4:2],8,
2h[4:1],3h[4:3],1,{8}4,4,
{4}4h[4:1],8h[4:1],7h[4:1],6h[4:1],
1h[4:1],2h[4:1],3h[4:1],8-4[8:1],
8,{12}3-1[8:1]x/5-7[8:1]x,3x/5x,3x/5x,{4}3x/5x,{8}8,8,
8/1,8/7,8/1,8/7,{2}8h[4:1]/1h[4:1],
{32}1x,2x,3x,4x,8x,7x,6x,5x,8x,1x,2x,3x,8x,7x,6x,5x,1x,2x,3x,4x,1x,8x,7x,6x,,,,,,,,,
{4}1-5[8:1]/5-1[8:1]b,1/5,7v1[8:1]b/3v5[8:1],7/3,4b-2[8:1]/8b-6[8:1],4b-1[8:1]/8b-5[8:1],4b-8[8:1]/8b-4[8:1],4b/8b,
{8}7-3[8:1],7,7x/5-1[8:1],5,5x/4-8[8:1],4,4x/2,2,
{16}2,7,1,8,3,6,1,8,3-6<7[8:1],6,2,7,{4}3b,
{8}1-4[8:1]/5-8[8:1],,1/5,,7-3[8:1]b,,2<8-6>4[4:1],2,,7x,7x,6x,5<8[8:1]/2,3,4,5>2[8:1],1,8,7,6,{16}5/7,4/8,,7/5,{8}4/8,2,,1q5[8:1],5,1,7p3[8:1],3,7,1,
8>3[8:1]/4<7[8:1],,8/4,,4>2-8<6[4:1],,1-5[8:1]b,1x,,4x,4x,3x,2>5[8:1]/6,1,8,7>2[8:1],6,5,4,3,{16}2/4,1/5,,2/4,{8}1/5,7,,6>3[8:1],3-6[8:1]b,6-1[8:1],2-5[8:1]b,2,2,,
{8}8b/4b,,5-2[8:1]b*-8[8:1],4/6,,,3-6[8:1]/7-2[8:1]b,4/8,,,1w5[8:1]b,8/2,,,3-8[8:1]b/7-2[8:1],4/6,,,1-4<5[8:1]*-6>5[8:1]b,3/7,,,3-5[8:1]b/7-1[8:1],1/5,
{4}3-1[8:1]/7-5[8:1]b,3/7-3[8:1]b,7/2-5[8:1]*-4<5[8:1]b,2x-7[8:1]b*-8<7[8:1],2-6[8:1],2/7w3[8:1]b,7,{8}5,5h[4:1],,6-3[8:1],6,8-5[8:1],8,2,{4}2,
{8}7b/3b,{16}5,5,{8}5,7/3,2b/6b,{16}4,4,{8}4,2/6,
{16}7b/Cf,,,1b/Cf,,,{8}8b-5>3[8:1]/4b-1<7[8:1],{2}8b/4b,
{8}8-6[8:1],1-3[8:1],8,1,5,{16}5-7>1[4:1],4,{8}6,5h[4:1],
,,,2-5[8:1],8-4[8:1],2-7[8:1],8,2,
,6,3,7,2,{16}1>3-5[4:1],8,{8}2,1h[4:1],
,,,8,{16}4-8[8:1],,,8,{8}4,7,
1-5b[8:1],7-3b[8:1],1,7,2,{16}1-4<6b[8:3],7x,{8}3x,1hx[4:1],
,,,7-3[8:1]b,4-8[8:1],7-5[8:1],4,7,
1,2,3/6,4/7,5/8,{16}8,4,{8}6,2h[4:1],
,5b,4b,6b,{16}5b,5b,{8}5b/Cf,
E
