&title=Theatore Creatore
&artist=Toby Fox & かめりあ
&first=0.07
&des=Zamykal vs arcanum∆
&lv_5=14
&inote_5=(185)
{1},
{16}2h[8:1],,,,3,4,3,4,3h[8:1],,,,4h[8:1]/5h[8:1],,,,
{16}4h[8:1]/5h[8:1],,,,6,5,6,5,6h[8:1],,,,7h[8:1],,,,
{16}5h[8:1]/6h[8:1],,,,4,5,4,5,4h[8:1],,,,3h[8:1]/4h[8:1],,,,
{8}E3,E7,E2,E8,E1,,C,,
{16}4h[8:1]/5h[8:1],,,,3,4,3,4,3h[8:1],,,,4h[8:1]/5h[8:1],,,,
{16}6,5,6,5,6h[8:1],,,,5h[8:1]/7h[8:1],,,,4h[8:1]/8h[8:1],,,,
{16}3,1,3,1,3,1,3,1,2,8,2,8,2,8,2,8,
{4}1xs5[8:5],,7x-3b[8:1],B3/B7/Cf,
{16}2b/6b,,4/5,,3,4,3,4,2,,6,5,6,,4/7,,
{16}3,4,3,4,2-4[8:1],,1-5[8:1],,2<7[8:1],,1,,2,,,,
{16}6,,6,,7,5,7,5,8-4[8:1],,2,2,8,,1,,
{8}1h[8:1],7h[8:1],5h[8:1],3h[8:1],{16}2-4[8:1]*-5[8:1],,,2x,,,,,
{16}1b/7b,,3/4,,6,5,6,5,7,,2,4,3,,4/5,,
{16}7-5[8:1],1,8-4[8:1],1,7>2[8:1],,8,,7<4[8:1],,,,4/7,,,,
{16}3,,3,,2,1,2,1,3/8,,6,5,6,,4/7,,
{8}B6,B4,B8,B2,A7/B7,A1/B1,A5/B5,A3/B3,
8x-4[8:1]b,2,8b<7-5[8:1]*>1-3[8:1],,8,,
4,7,1/2,3/8,4/7,6pp1[8:3]/5pp2[8:3],,A5/A6/E6f,,,,,
7-1[8:1]/3-5[8:1],,7/3,,6/2,3,8/4,7,6/3,4/2-4<5-1[8:3],,8h[8:1],{16},8h[8:1],{8},
7bq3[8:1]b,2,7-5-3[8:1]*-4[8:1],,7,,
1,7,4/6,3/5,2/4,1q4[8:3]/8qq5[8:3],,A8/A1/E1f,,,,,
{8}6<1[8:1]/4,5,6/4>1[8:1],5,{16}8/4,7,6,5,
{8}8bx,8bx,1b/5b,3b/7bh[8:3],Cf,,,,
2/5,{24}3,4,3,{8}4-7[8:1]*v1[8:1],,4,,
8,8/2,7/3,6/2,5/1,4pp3[8:3]/8pp7[8:3],,E5/B4f/E1/B8f,,,,,
4-7[8:1]/8-3[8:1],,8/4,,6/2,3,8b/4,7bw3[8:1]b/5,,{16}7b,Cf,{8},,4/2-5[8:1],,
6<1[8:1]/2,6,6/4-1[8:1],4,7-4[8:1]*-3[8:1]/4,7,7,,
2>5[8:1],2,8-4[8:1]/2,8,3>8[8:1]/8<5[8:1],3,3,,
4,4,{16}3,5,3,5,2,6,1,7,3,8,4,1,{8}5b-2[8:1]b,8b-4[8:1]b,5b,8b,,,A1f,,
{8}B2/B3/E3,7,6,5,6,5,B2/B3/E3,7,
{8}6,5,B2/B3/E3,7,6,5,6,5,
{8}B2/B3/E3,7,6,5,6,5,4h[8:3],8,
{8}7,6h[8:3],8,1,2,2h[8:5],E6,,
{8}E4,,A7/B7,A8/B8,A1/B1,A2/B2,B6,B5,
{8}B4,B3,C,,B7/B6/E7,2,3,4,
{8}3,4h[4:1],B7/B6/E7,2,3,4h[4:1],B7/B6/E7,2,
{8}3,4,3,4h[4:1],B7/B6/E7,2,3,4,
{8}3,4,5h[8:3],3,2,1h[8:3],6,7,8,8h[8:3],E2,,E8,,A3/B3,A4/B4,
{8}A5/B5,A6/B6,B2,B1,B8,B7,C,,
{8}1/B6/B5/E6,2,3/4,5,3/4,2,1/B6/B5/E6,2,
{8}3/4,5,4/B7/B8/E8,3,B5,B3,B7,B1,
{8}A6/B6,A4/B4,A8/B8,A2/B2,6,,3/Ch[1:2],3,
{8}3,3,4,4,4,4,3,3,2,2,1,8,1,2,3,4,E8,E2,{24}B6,B5,B4,B3,,,
{2}1b-4[8:1]*s5[8:1],8bz4[8:1]*v5[8:1],
2b-5[8:1]*-4-6[8:1],7b-4>3[8:1]*qq5[8:1],
1b>2-5[8:1]*v4[8:1],8b<7v4[8:1]*-5[8:1],1xs5[2:1],,
{4}B5/E5,B3/E3,
{8}B7/E7/E8,,B1/E1/E2,,B3/B4/B5/C,,,A1,
{8}A2,,,,3h[1:1],,E4,E5,
{8}E6,,6,,6h[2:1],,,E1,
{8}E2,,,,3h[1:1],,,B3,
{8}B4,,,4,4h[1:1],,,B4,
{4}B5,,5h[2:1],E6,
{4}6h[4:1],1xs5b[2:1],Chf[4:3],,
{4},B1/B2/B3/B4/B5/B6/B7/B8,
{16}6x/2x,,,5x/3xh[16:9],,,
{24}B2f,B1,B8,B7,B6,B5,B4,B3,B2,B1,B8,B7,
{16}B6/E7,,2x,,,4x/6xh[16:9],,,
{24}E6f,E7,E8,E1,E2,E3,E4,E5,E6,E7,E8,E1,
{16}E2/D2/A1,,5,,,8/2h[16:9],,,
{24}E2f,E3,E4,E5,E6,E7,E8,E1,E2,E3,E4,E5,
{16}E6/B6/A6/E7,,3,,,6h[16:3]/4,,,1x,2x,3x,,B6,,B3,,,,
7,5,7,5,6,4,6,4,5,3,5,3,4,2,4h[8:1],,
1,4,1,4,2,5,2,5,3,6,3,6,4,7,5h[8:1],,
8,4,8,4,7,3,7,3,6,2,6,2,{32}5,4,3,2,1,8,7,6,
{4}1xs5[8:5]/5x,,7x-3b[8:1],Cf/B7/B3,
{8}2b/4b,1,5/7,8,
{8}3v6[8:1]/7,1/5,3/7,1,7b<4[8:1],,3/7,2,
{8}1-4-2b[16:3],,1/5,{16}5x,6x,{8}7x-4[8:1],,1-5[8:1]/7,2,
{8}1/8-4[8:1],,3<6[8:1]/8,,3/7-3[8:1],,2/7,1,
{8}4-7[8:1]/8-3[8:1],,4/8,,2b>5[8:1]/8b,,2/6,7,
{16}8-3[8:1],,,4,8,,4,,5x>2[8:1],,,,1/5,,8,,
{8}7-2[8:1]*v4[8:1],,7,,3b/5b,1,4/6,8,
{8}8b-3[8:1]/4b,2/6,8-5[8:1]/4,6,8/4x,{16}4bxh[8:1],,,3xh[8:1]/4xh[8:1],,,
{16}4xh[8:1]/5xh[8:1],,,5xh[8:1]/6xh[8:1],,,4/7,,
{2}4z8[4:5]*z8[4:5]/7h[2:3],,,
{4},7<4[8:1]b/8,{24}7b/8b,1x,2x,3x,,,
{4}2>5[8:1]b/1,{24}2b/1b,8x,7x,6x,,,
{4}8-5[8:1]/1,8b/3<6[8:1],1-5[8:1]/3b,1b/2w6[8:1]b,,
{16}8<3[4:1],,,3,8/3,,2,,1>6[4:1],,,,6/1,,7,,
8V64[4:1],,,3,{8}8/3,2,1-5[8:1],,
7/1,,8h[16:1],8h[16:1],
7h[16:1]/1h[16:1],7h[16:1]/1h[16:1],
{16}6,2,6,2,5,3,4,3,
7xb,5,6,2x,4,3,8x,6,7-3[8:1],1x,3,2,,,,,
2xb,4,2,7x,5,7,1x,4,3>8[8:1]*>8[8:1],8x,5,6,,,,,
5b,4,6,1x,8,2,6x,5,7-4[8:1]b,2x,1,3,,,,,
1x,8,1,8,1,8,1,8,1,7,1,7,1,7,1,7,
2,6,2,6,2,6,2,6,3,5,3,5,3,5,3,5,{8}4-8b[8:1],,,,
{4}7h[8:1]/1qq5[8:13],6h[8:1],
5h[8:1],4h[8:1],5h[8:1],
{8}6,6h[4:1],,,7,8<5p4[8:13],,,,
4h[8:1],{16},3h[8:1],{8},2h[8:1],,1,1,1h[8:1],,8h[8:1],,7>1q5qq3[1:1],,
5,5h[4:1],,,6,6h[4:1],,,7-3[8:1]b,,7,,
1/2,{16}4,3,4,3,5,,8/7,,5,6,5-1[8:1],,4,,3h[4:1],,,,
8,,5,6,5,6,4,,1/2,,4,3,4-8[8:1],,5,,6h[4:1],,,,
1,,2,4,3,5,4,,7/8,,6,4,5-1[8:1],,3,,2h[4:1],,,,
{24}8x,7x,6x,{16}3,3,4,,{24}1x,2x,3x,{16}6,6,5,,
{24}1x,8x,7x,{16}3,3,{24}5x,6,7,2x,3,4,
{1}5-7v2b[1:1]/1h[4:5],{4},,
{8}8,2x/7x,1x>4[8:1]/8xh[4:1],,1b-5[8:1],8b-6[8:1],1b-3[8:1],8b-4[8:1],
{16}1b,,8b,,1b,,7,8,7x,,5b/6b,,3,4,3,,
{16}1b/2b,,2-5[8:1],8x,,8,2,,A6/D7f/A7,,,,2b-6[8:1],,8b-4[8:1],,
{8}2b-4[8:1],8b,2b,{24}8bx,7,6,{16}1b>4[8:1],8,1,8,1-5[8:1],,7,7,
{16}1,,6,,4,6,3,5,{24}2-6[8:1],4,2,4,2,4,,,,,,,
{24}7s3b[16:3],5,7,5,7,5,{8},,2,1/8,5/7,2/4h[8:5],
{8}E4,E3,E2,E1,7x<5p2>4[4:5],,,,
{1},
{4},D5/A5,E4/A3/B4,A6/B6/B2/C,
{16}A2/A8/B1/E1/E2,,,,6,,7bh[8:1]/5bh[8:1],,,4bh[8:1]/2bh[8:1],,,1/8,,1/8,,
{16}1b,7,3,7,5,7,2,8,4,8,6,8,1bh[8:1],,7,1,
{16}3,1,5,1,7bh[8:1],,2,7,5,7,8,7,3,7,6,7,
{8}1b,3b/4b,5b/7b,2b/3b,1-6[8:1]/7-4[8:1],,
{1}1b<3b[4:7]/7b,,{4},E
