&title=Offshore
&artist=Nhato
&first=0.32
&lv_5=12+
&des=我一不小心就
&inote_5=
(132){4},,,,,,,,2/7h[1:1],
3,4,3,
2h[1:1],6,5,6,
{8}8h[2:1],,,4,{2}4V28V24[1:1],
{4}7,7,6,6h[8:1],
7/2h[1:1],6,5,6,
7h[1:1],3,4,3,
{8}1h[2:1],,,5,{2}5V71V75[1:1],
{4}2,2,3,3h,
{8}2,2,6,6h[4:1],,2-5[8:1],5>7[8:3],2,
,,{4}6h[4:1],5h[4:1],4h[4:1],
{8}2h[4:7],,,7,{2}7-4[8:1],
3-8[8:1],7<4[8:1],
{8}7,7,3,3h[4:1],,7v4[8:1],4<2[8:3],7,
,,{4}4h[4:1],5h[4:1],3h[4:1],
8>5[4:1],8,1<4[4:1],1,
8,8,{8}7h[2:1],,,2,
{4}2b>5[8:1],{8}2,8<5[8:1],,8/4>1[8:1],,4,
{4}7<4[8:1],{8}7,1>4[8:1],,1/5<8[8:1],,5,
{4}3-8[8:1],{8}3,7-4[8:1],,7/2-7[8:1],,2,
{4}6-3[8:1],{8}6,1-6[8:1],,1/7-4[8:1],,7,
{4}1>4[8:1],{8}1,7<4[8:1],,2/7-3[8:1],,7,
{4}4>1[8:1],{8}4,6<1[8:1],,2/6-3[8:1],,6,
{4}1-4[8:1],{8}1,5-8[8:1],,5/3-6[8:1],,3,
{4}7-2[8:1],{8}7,5>2[8:1],,1/5<8[8:1],,5,
1,{16}6,5,{8}7,{16}3,4,{8}2,{16}6,5,{8}7,{16}3,4,
{8}1,{16}6,5,{8}8,{16}3,4,{8}1,{16}6,5,{8}8,{16}2,4,
{8}3,{16}7,5,{8}6,{16}2,4,{8}3,{16}7,5,{8}6,{16}1,4,
{8}3,{16}8,5,{8}6,{16}3,1,{8}2,{16}6,8,{8}7,1,
2-5-3[4:1],{16}6,6,{8}2,8,7-4-6[4:1],{16}3,3,{8}7,1,
3-8-2[4:1],{16}7,7,{8}3,5,6-1-7[4:1],{16}2,2,{8}6,4,
{16}4,5,4,5,3,6,3,6,2,7,2,7,1,8,1,8,
2,2,7,7,3,3,6,6,4,4,5,5,1b,1,{8}1,
7b/2b,{16}6,5,{8}6,2h[2:1],{16}6V47[4:1],6,,,{4}6,
{8}2,{16}3,4,{8}3,7h[2:1],{16}3V52[4:1],3,,,{4}3,
{8}6,{16}7,8,{8}7,3h[2:1],{16}7V16[4:1],7,,,{4}7,
{8}3,{16}2,1,{8}2,6h[8:3],{16}2,2,,,1,1,8,8,
{8}2b,{16}3,4,{8}3,7h[2:1],{16}3V52[4:1],3,,,{4}3,
{8}7,{16}6,5,{8}6,2h[2:1],{16}6V47[4:1],6,,,{4}6,
{8}3,{16}2,1,{8}2,6h[2:1],{16}2V83[4:1],2,,,{4}2,
{16}7,7,8,8,6,6,5,5,8,8,1,1,4,4,3,3,
{8}7b,{16}6,5,{8}6,2h[2:1],{16}6V48[4:1],6,,,{4}6,
{8}2,{16}3,4,{8}3,7h[2:1],{16}3V51[4:1],3,,,{4}3,
{8}6,{16}7,8,{8}7,3h[2:1],{16}7V15[4:1],7,,,{4}7,
{8}3,{16}2,1,{8}2,6h[8:3],{16}2,2,,,1,1,8,8,
{8}2b,{16}3,4,{8}3,7h[2:1],{16}3V51[4:1],3,,,{4}3,
{8}7,{16}6,5,{8}6,2h[2:1],{16}6V48[4:1],6,,,{4}6,
{8}3b,{16}2,1,{8}2,3/7,6b/4b,{16}5,3,{8}5,6/1,
{16}2,2,1,1,3,3,4,4,1,1,8,8,5,5,6,6,
{2}1V35[8:1]*V75[8:1],3/7,
8V64[8:1]*V24[8:1],6/2,
2V41[8:1]/6V85[8:1],7/3,
{16}2/6,,,3/7,,,{8}5/1,{4}3b/7b,2b/6b,
{2}8v5[8:1]/4v1[8:1],2/6,
2v4[8:1]/6v8[8:1],3/7,
8<5[8:1]/4>1[8:1],6/2,
{16}3/7,,,6/5,,,{8}3/4,{4}5b/2b,3/7,
{2}4>1[8:1]/8<5[8:1],4/8,
7h[8:3]/2V85[4:1],7,
3h[8:3]/5-8-2[4:1],3,
{16}2<7[16:3],,,7-3[16:3],,,{8}3<6[16:3],{2}3b,
5-8[8:1]*q4[4:1],7,
1>4[8:1]/5<8[8:1],1/5,
5-8[8:1]/8z4[4:1],7,
{4}6h[2:1]/1-7-5-3[2:1],,,6h,
{8}1b,,,,,7,8,1,
{4}2,,,6h,
{16}3,,,3,,,{8}3,{16},3,,,{8}4,4,
{16}6,,,6,,,{8}6,{16},6,,,5,5,5,5,
1,8,1,8,2,7,2,7,3,6,3,6,4,5,4,5,
4,8,4,8,3,7,3,7,2,6,2,6,1,5,1,5,
{32}1,2,3,4,5,6,7,8,1,2,3,4,5,6,7,8,1h[64:1],2h[64:1],3h[64:1],4h[64:1],5h[64:1],6h[64:1],7h[64:1],8h[64:1],1h[64:1],2h[64:1],3h[64:1],4h[64:1],5h[64:1],6h[64:1],7h[64:1],8h[64:1],
{4}1w5[8:3],{16},,,,,,,,1,1,8,8,
7b/2b-5[8:1],,,6,{8}2,7,{16}5p1[8:1],8,,,{8}7/5,6,
{16}7/1-5[8:1],,,7,{8}1,6,{16}5>2[8:1],7,,,{8}5/8,7,
{16}2/7-4[8:1],,,3,{8}7,2,{16}4q8[8:1],1,,,{8}2/4,3,
{16}2/8-4[8:1],,,2,{8}8,3,{16}4<7[8:1],2,,,4/1,1,1,1,
8/1v4[8:1],,,8,{8}1,7,{16}4v2[8:1],7,,,{8}4/6,6,
{16}5/2<7[8:1],,,6,{8}2,5,{16}7-3[8:1],5,,,{8}7/6,5,
{16}1/8v5[8:1],,,1,{8}8,2,{16}5v7[8:1],2,,,{8}5/3,3,
{16}8,8,8,8,2,2,2,2,4,4,4,4,6,6,6,6,
8-5[8:5],,,1,,,{8}2,{16},3,,,{8}4,4,
{16}4-1[8:5],,,5,,,{8}6,{16},7,,,{8}8,8,
{16}3,,,4,,,{8}5,{16},6h[16:5],,,{8}2,2,
{16}2,,,1,,,{8}8,{16},7h[16:3],,,3,3,3,3,
3/7,,,4/8,,,{8}6/2,{16},1/5,,,{8}3/7,3/7,
{16}2h/6h,,,5h/1h,,,{8}3h/7h,{16},8h/4h,,,{8}6h/2h,6h/2h,
{16}1,5,1,5,2,6,2,6,3,7,3,7,4,8,4,8,
3,3,3,3,1,1,1,1,7,7,7,7,5,5,5,5,
3b,,,3,,,{8}3,{16},3,,,3,,,3,
,,{8}3,{16},3,,,3,,,3,,,{8}3,
{16},3,,,3,,,3,,,{8}3,{16},3,,,{1}3,
E
