&title=REINCARNATION
&artist=P*Light
&first=0
&des=烬野 & Aicy
&wholebpm=220
&shortid=15033
&genreid=10
&genre=ちほーボーナス曲
&versionid=26
&version=CiRCLE PLUS
&clock_count=4
&chartconverter=MaiChartManager v26.1
&ChartConvertTool=MaiChartManager
&ChartConvertToolVersion=26.1
&des_5=
&lv_5=14
&inote_5=(220){1},
{8}1h[8:3],,,7h[8:3],,,5h[4:3],,
{2},6<1p5[4:7],
{1}B3h[2:3],
{1},
{8}5h[8:3],,,3h[8:3],,,1h[4:3],,
{2},2>5p1[4:7]b,
{1}B7fh[2:3],
{1},
{8}8b/1b,,3/4,4,2,2,1/2,,
{8}1/8,,6/5,5,7,7,8/1,8/1,
{8}7b/2b,,6/5,5,7,7,7/8,,
{16}8/1,,7/2,,6/3,,,,2/7,,1,8,1,8,1,8,
{16}1bh[16:3],,,6h[16:3],,,E4/B4/B3,,8h[16:3],,,3h[16:3],,,B5/B6/E6,,
{16}8x/7x,,,6x/5x,,,1x/2x,,,,3x/4x,,8x/2x,,,,
{16}2x,8,2,8,2x,8,2,8,3x,7,3,7,4x,6,4,6,
{4}4x>1[4:1],1<6[4:1],5w1b[8:1],,
{8}3bx/7bx-3-8-4[2:1],,,,4xV68[4:1],3,2,,
{8}1,,1-7-1[4:1],1,1x>4b[8:1],,,,
{4}2x/7x,6x/2x-5[4:1],5x-1-6[2:1],6,
{8}6,,8<6<8[4:1]b,8,8xw4b[8:1],,,,
{8}6bx/2bx-6-1-5[2:1],,,,5xV31[4:1],6,7,,
{8}8,,8-2-8[4:1],8,8x<5b[8:1],,,,
{16}3/4,,,3/4,,,3/4,,2/5,,1,,8/1,,,,
{8}1h[8:3]/8h[8:3],,,,1/8,1/8,2/7,6/3,
{8}5b/4b,6,4/7,3,6/2,7,2/8-5[8:1],,
{4}1/8-3[8:1],7/8-5[8:1],1/8-3[8:1],7/8,
{8}1/2,8,7/1,2,3/8,7,6/2,3,
{16}4/5,,4/5,,4/5,,6,,7/2,,1,8,1,8,1,8,
{16}1bh[16:3],,,6h[16:3],,,4,,8bh[16:3],,,3h[16:3],,,5,,
{16}1bh[16:3],,,6h[16:3],,,4-8b[4:1],,4x,,,,,,,,
{16}1b,7,1,7,1,7,1,7,2b,6,2,6,3b,5b,3b,5b,
{4}3x>8[4:1],8x<5[4:1],4xw8b[8:1],,
{4}2bx/6bx,2/6,5/4,4/3>7q3[4:3],
{8}5x,5x,5x,,5,,5,,
{4}4/6,5/7,8/6,1/7<3q7[4:3],
{8}1x,1x,1x,2x,2,,2,,
{8}1,1,2,2,3,3,4,4,
{8}5,5,6,6,7,7,8,8,
{16}1x/7x,2,3,4,5,6,7,8,1x/6x,2,3,4,5,6,7,8,
{1}5x<1p5[2:1]b/1x>5p1[2:1],
{16}2bx/6bx,,,,2h[8:1],,B4,B5,2h[8:1],,B4,B5,2h[8:1],,B4,B5,
{16}1h[8:1],,B4,B5,1h[8:1],,B4,B5,8h[8:1],,B4,B5,8h[8:1],,B4,B5,
{16}7h[8:1],,B4,B5,8h[8:1],,B4,B5,1h[8:1],,B4,B5,2h[8:1],,B4,B5,
{16}2h[8:1],,B4,B5,3h[8:1],,B4,B5,4x,4x,,5x-7[16:1],,,5,,
{16}4h[8:1],,B8,B1,4h[8:1],,B8,B1,5h[8:1],,B8,B1,6h[8:1],,B8,B1,
{16}5h[8:1],,B8,B1,4h[8:1],,B8,B1,3h[8:1],,B8,B1,4h[8:1],,B8,B1,
{16}6h[8:1],,B8,B1,4h[8:1],,B8,B1,5h[8:1],,B8,B1,3h[8:1],,B8,B1,
{8}E7/B6/B5/E6/E5/B4/B3/E4/E3/C1f,,,,,,2b,2b,
{16}2bx/5bx,,3-5[8:1],4,3,4,3x,,6,6,5x,,7/4,,7/4,,
{16}7x/4x,,6-4[8:1],5,6,5,6x,,3,3,4x,,2/5,,5/2,,
{16}5x/2x,,3-5[8:1],4,3,4,3x,,6,6,5x,,7/4,,7/4,,
{16}7x/4x,,6-4[8:1],5,6,5,6x,,3,3,4x,,2/5,,5/2,,
{16}2,5,2,5,3,6,4pp8[4:1],7,4,,,,B6/E6/B5,,,,
{16}1,7,1,7,2,8,3pp7[4:1],1,3,,,,B5/E5/B4,,,,
{16}8,6,8,6,1,5,1,5,2,4,2,4,3b,3b,3b,3b,
{1}3b<7qq3[4:3]b,
{1}A3f/D3/D4/D8/D7/A7f,
{2},B8/B7/A8/A7/E8h[2:1],
{1}B3/B4/E4/A3/A4,
{2},B1/B2/A1/A2/E2h[2:1],
{1}B6/E6/B5/A6/A5,
{4},,E8/E4,E7/E3,
{1}E2h[1:1]/E6h[1:1],
{1}E8/C1/E4,
{8}5/3h[8:3],,,5,3x/5xh[4:5],,,,
{8}1,1,,7,7xh[4:5],,,,
{8}4,4,4,4,4xh[4:5],,,,
{8}6,6,,8,8x,,2,,
{4}2/4,3/5,4x/6xh[4:1],,
{8}6/5,6/5,,3/4,3x/4x,,2/6,,
{4}B7h[1:2],B3h[4:7],B6h[2:3],B2h[4:5],
{1}C1fh[1:1],
{8},,,,2h[8:1],1,2h[8:1],3,
{8}2h[8:1],8,2h[8:1],4,2v3[8:1],7,,,
{8}6h[8:1],,6h[8:1],,6h[8:1],7,6h[8:1],5,
{8}6h[8:1],8,6h[8:1],4,6v5[8:1],1,,,
{16}3/4h[8:3],,,2,,,1,,6/5h[8:3],,,7,,,8,,
{16}4/3h[8:3],,,2,,,1,,5/6h[8:3],,,7,,,8,,
{1}A2/B2/A7/B7/B6/E7/B3/E3/B5/B4/A5/A4/C1fh[32:1],
{4},1bs5b[8:1]/8bz4[8:1],E1f/D2/D8/B7/B2/B8/B1,,
{16}3b/7b,,6,5,7,,3,4,2>5[8:1],,1,,2/8-4b[8:1],,7,,
{8}8<6[8:1],3,8>2b[8:1],5,8-5[8:1],4,8,3,
{16}2b/6b,,3,4,2,,6,5,7<4[8:1],,8,,7/1-5b[8:1],,2,,
{8}1>3[8:1],6,1<7b[8:1],4,1-4[8:1],5,1,6,
{16}7b/3b,,6,5,7,,3,4,2>5[8:1],,1,,2/8-4b[8:1],,7,,
{8}8>3b[8:1],3,8<5b[8:1],5,8w4b[8:1],3,8,,
{32}1>4b[8:1],,,,,,,,1b/7b,E7/E2,E6/E3,E5/E4,,,,,8<5b[8:1],,,,,,,,8b/2b,E8/E3,E7/E4,E6/E5,,,,,
{16}1bh[2:1],,,,5bh[4:1],,,,,,,,1x/5x,2/6,3/7,4/8,
{16}5bx/1bx,,7,5,6x,,2,4,3<6[8:1],,2x,,3/8-4b[8:1],,7x,,
{8}8-2>3[8:1],3x,8-5b[8:1],5x,8,3x,2bx/6bx,,
{16}1bx/5bx,,2,4,3x,,7,5,6>3[8:1],,7x,,6/1-5b[8:1],,2x,,
{8}1-7<6[8:1],6x,1x-4b[8:1],4x,1,6x,7bx/3bx,,
{16}2bh[16:3],,,4,3,,4/5,,7bh[16:3],,,5,6,,5/4,,
{16}3bh[16:3],,,1,2,,8/1,,6bh[16:3],,,8,7,,8/1,,
{16}2bx/7bx,3,4,5,6,7,8,1,2bx/7bx,6,5,4,3,2,1,8,
{32}4bx/7bx,5,6,7,8,1,2,3,4bxw8b[8:1],,,,,,,,B8/E7/E1/E8/B7/B1/E2/C1fh[32:1],,,,,,,,,,,,,,,,
{16}3,4,3,4,3,4,3,4,3,4,3,4,1b,,,,
{16}6,5,6,5,6,5,6,5,8bh[8:3],,,,3b,,3b,,
{32}2,,1,,2,,1,,2,,1,,2,,1,,2,,1,,2,,1,,B3f,B4,E5,,,,,,
{16}7,8,7,8,7,8,7,8,5bh[4:1],,,,B1/B2/A1/A2/E2f,,,,
{16}4b,5,4,5,3b,6,3,6,2b,7,2,7,1b,8,1,8,
{16}2b,1,3b,8,4b,7,5b,6,3b,4,2b,5,1b,6,8b,7,
{32}1b,2,3,4,5,6,7,8,1b,2,3,4,5,6,7,8,1b,2,3,4,5,6,7,8,1bw5b[8:1]*-5b[8:1],,,,,,,,
{1}1b,
{1}A7/B7/E7/B6/A2/B2/E3/B3/B5/B4/A5/A4/C1fh[32:1],
{1},
{1},
{1},
E
