&title=点と線
&artist=伊藤美来
&first=0.62
&des=.-././.--
&lv_5=11
&inote_5=(45)
{1},
{8}1-5[8:1],,1,,7-3[8:1],18,73,,
{8}4>7[16:3],,46,,5-1[8:1],46,53,,
{8}8<3[16:3],,82,,1p8[16:3],72,81,,
{8}5q1[8:1],,25,,3V51[16:3]/4V68[16:3],18,34,,
{8}2q6[8:1],,28,,7/1<4[16:3],28,13,,
{8}6-8[32:3]/5-1[32:3],8-4[32:3]/1-3[32:3],65,,2q7[32:3]/6q3[32:3],7p2[32:3]/3p6[32:3],26,,
{8}1-5[32:3]/7,3/5w1[8:3],17,,,,,{24},,8h[24:1],
{24}1b,,24,3,4,5-1[24:1],4/6h[24:2],,2,2h[24:2],,5,,,28,2,17,7,6/5q7[8:1],,81,81,,4,
{24}3h[8:1]/5,,,,4^1[24:1],5,6h[24:4],,,,4,,8/7pp4[24:3],,6,6,,5,5h[24:4],,,,3,,
{24}18,,75,6,5,4-8[24:1],5/3h[24:2],,7,7h[24:2],,4,,,71,7,82,2,3/4,,5>6[8:3]/6pp5[8:3],47,,12,
{24}38,74,,,,,,,,,,,,,57,,18,,2/4-8[24:1],,56,,27,,
{24}4b,,31,2,1,8p4[24:1],1/7h[24:2],,3,3h[24:2],,8,,,35,2,46,7,1/8pp4[8:1],,37,37,,1,
{24}6h[8:1]/8,,,,5v8[24:1],3,4h[24:4],,,,5,,5/6qq1[24:3],,7,7,,8,8h[24:4],,,,2,,
{24}45,,68,7,8,1q5[24:1],8/2h[24:2],,6,6h[24:2],,1,,,71,6,82,3,45,,8s4[24:4]/7z3[24:4],61,,34,
{24}25,16,,,,,,,3h[24:2],,6,,,,5/7,,1/8,,24,,,,,,
{48}1,,1,,8h[48:1],,,1,,8h[48:1],,,8h[48:1],,1,,8h[48:1],,,1,,8h[48:1],,,1,,1,
