&title=【我查插我】極私的極彩色アンサー
&artist=トゲナシトゲアリ
&first=0
&des=追想ブロカント
&lv_5=14
&inote_5=(150.0001)
{1},,
{4}1bqq4[4:6]/5b,,,,
{4},,,,
{4}5<3[4:4],,4,,
{4}5,,5b-2[8:1]/6b-3[8:1],5bpp1[4:7]/6b,
{4},,,,
{4},,,,
{16}3,,,,3/4,,,,5,,,4/6,,,4/6,,
{4}3>8[8:1]/7<4[8:1],3/7V51[16:3],,8b,
{16}2,6,3,5,
(150)
{16}1b,,,7,2,7,2,,8>3[8:1],,8<5[8:1],,,,,,
{16}4,,3,4,3,4,2,,6h[8:1],,5h[8:1],,4h[8:1],,3h[8:1],,
{16}8,,7,1,7,1,7,,2v5[8:1]/8v5[8:1],,3,,2/8,,,,
{16}6,,4,5,4-6[32:3],5,3-1[32:3],,4b,,3b,,7,7,7,7,
{16}8,,,2,7,2,7,,1<6[32:3],,1>4[32:3],,,,,,
{16}5,,6,5,6,5,6,,3h[8:1],,4h[8:1],,5h[8:1],,6h[8:1],,
{16}1,,2,8,2,8,2,,3-8[8:1]/7-4[8:1],,6,,3/7,,,,
{16}2,,5,4,5,4,6,,1b,,3b/7b,,2,2,6,6,
{16}1,,5,3h[16:3],,,5,,6,,4,5h[16:3],,,4,,
{16}3,,5,4h[16:3],,,5,,6,5,6,5,,,4/7,,
{16}3,,4,2h[16:3],,,4,,5,,4,6h[16:3],,,5,,
{16}4,,5,3h[16:3],,,4,,5,4,6,4,5,3,6,5,
{16}7,,4,5h[16:3],,,4,6,2,,5,3h[16:3],,,4,3,
{16}6,,5,7h[16:3],,,5,6,3,4,3,4,,,2/6,,
{16}1,,5,4h[16:3],,,5,3,7,,4,6h[16:3],,,5,6,
{16}3,4,,7,5,,2/8,,6,6,5,5,4,4,3,3,
{16}8p4[8:1],,,,,,,,2,,4,4,3h[16:1],,5h[16:1],,
{16}1q5[8:1],,,,,,,,7,,5,5,6h[16:1],,4h[16:1],,
{16}8<4[8:1],,,,,,,,1,,3,3,4h[16:1],,6h[16:1],,
{16}1>5[8:1],,,,,,,,5/6,,,4/5,,,3/4,,
{16}2-4[32:3]/6,,,,2/4,,,,5-7[32:3],,,,5/7,,,,
{16}8-2[32:3],,,,8/4-6[8:1],,,,4/7-3[32:3],,,,1/7,,,,
{16}2>4[32:3],,,,2/4,,,,7<4[8:1]*>2[8:1],,,,,,,,
{16}3/5,,,6/8,,,1/2,,3-7[8:1],5,1,7,3,,,,
{16}8b/2b,,3,4,2-5[8:1],,1<6[8:1],,2V48[16:3],,1,,2,,5,,
{16}7,,7,5,3-6[8:1],,2,,3/1w5[8:1],,7,,1b,,,,
{16}1b/7b,,2,4,3,,2/8,,7,5,6,,3b/7b,,{32}1b/8b,,,,
{16}2/4,,8b,,5/7,,1b,,{16}3-8[8:1]/7-4[8:1],2/6,,,3b/7b,,,,
{16}2b>5[8:1]/6b,,1,8,2,,7h[8:1],,{24}8-4[8:1],1,2,3,,,{16}8/5,,3,,
{16}5/2,,1,8,1,,6,,4>1[8:1]/7<4[8:1],,,,4b/7b,,,,
{16}1b/7b,,6,5,8,,4/6,,3,4,2,,3/5,,3/5,,
{16}6-3[8:1],,1-4[8:1],,6,,1,,5w1[8:1],,,,5b,,,,
{16}1b/7b,,6,5,7-4[8:1],,8>3[8:1],,7V51[16:3],,8,,7,,4,,
{16}2,,2,4,6-3[8:1],,7,,6/8w4[8:1],,2,,8b,,,,
{16}8b/2b,,7,5,6,,7/1,,3,4,2,,1b/8b,,6/2,,
{16}7/8,,4b,,2/1,,5b,,4>1[8:1]/8<5[8:1],3/7,,,4b/8b,,,,
{16}7b<4[8:1]/3b,,8,1,7,,2h[8:1],,{24}1-5[8:1],8,7,6,,,{16}1/4,,6,,
{16}4/7,,8,1,8,,3,,5<8[8:1]/2>5[8:1],,,,5b/2b,,,,
{16}2b-6[8:1]/8b,,3,4,2b-4[32:3],,5b<8[8:1],,2b,,5b,,{32}1b,2,3,4,5,6,7,8,
{16}1b/5b,,,3b/4b,,,5b/6b,,3b-6[8:1]/7b-2[8:1],,,,3b/7b,,,,
{16}8,7,6,5,1,2,3,4,6h[8:1],,5,5,6,,3/7,,
{16}1,2,3,4,8,7,6,5,3h[8:1],,4h[8:1],,5h[8:1],,6h[8:1],,
{32}1,8,7,6,5,4,3,2,{16}1/8b,,,,7,3,7,3,8z4[16:3],4,6,2,
{16}8,,,,1,,1,,8h[32:2]/7b,,6h[32:2]/5b,,7b/1h[32:2],,2b/4h[32:2],,
{16}8,1,2,3,8,7,6,5,3h[8:1],,4,4,2,,7/1,,
{16}8,7,6,5,1,2,3,4,6h[8:1],,5h[8:1],,4h[8:1],,3h[8:1],,
{16}1,8,7,6,1,2,3,4,7h[8:1],,5,5,6,,1/7,,
{16}8,1,2,3,1,8,7,6,{32}1,2,3,4,5,6,7,8,1qq4[4:2],2,3,4,5,6,7,8,
{16}5b,,,,,,,,5h[4:2],,,,,,,,
{16}3<5[8:1],,,,,,,,7,5,6,5,6,4,6,5,
{16}7<4[8:1],,,,,,,,2,4,3,4,3,5,3,4,
{16}1>5[8:1],,,,,,,,6/7,,,4/5,,,2/3,,
{16}1,,4,4,2,,,,4/3,,,4,3,,5,,
{16}4,6,,,6/5,,5,,7/5,,,5,7,,4,4,
{16}8<5[8:1],,,,5/8,,,,2>5[8:1]*<7[8:1],,,,,,,,
{16}4/6,,,1/3,,,7/8,,{16}6-2[8:1],4,8,2,6b,,,,
{16}1b,,5,2,4,3,4,3,6b,,4,8,5,7,5,7,
{32}3b,4,5,,{16}8,8,{32}2b,3,4,,{16}7,7,
{32}1b,2,3,4,8b,7,6,5,{16}1b,,,,
{16}2b/6b,,1,8,3>8[8:1],,7-4[8:1],,3V51[16:3],,7,,3,,6,,
{16}8,,2,4,6>3[8:1],,7,,2-5[32:4],,8-6[32:3],,2b,,8b,,
{16}3b-6[8:1],,5,5,3,,7,,7-4[8:1]/8,,5,,7b/3b,,1b,,
{16}2b,4,3,4,1,5,4,5,{32}8bw4[8:1],7,6,5,4,3,2,1,{16}8b,,,,
{16}2b/7b,,1,4,3,,6h[8:1],,{24}8-4[8:1],1,2,3,4,5,{16}8,,3,,
{16}2/5,,1,8,1<6[8:1],,6,,1b/4bw8[8:1],,3,,4b,,,,
{16}2b/8b,,3,4,3,,1/7,,6,5,6,,4/5,,2/6,,
{16}2,4,3,3,7,5,6,6,1bw5[8:1],,2/8,,1b,,,,
{16}7b/3b,,8,1,6<1[8:1],,2-5[8:1],,6V48[16:3],,2,,6,,3,,
{16}1,,7,5,3<6[8:1],,2,,7-4[32:4],,1-3[32:3],,7b,,1b,,
{16}6b-3[8:1],,4,4,6,,2,,2-5[8:1]/1,,4,,2b/6b,,8,,
{16}1-4[8:1],7,3,5,1b,,7b,5,6,2,4,3,8b,1,8,,
{16}7b/2b,,8,5,6,,3h[8:1],,{24}1-5[8:1],8,7,6,5,4,{16}1,,6,,
{16}7/4,,8,1,8>3[8:1],,3,,8b/5bw1[8:1],,6,,5b,,,,
{32}7/1,6,5,4,3,2,1,8,7b/5,,,,{16}8b,,5,2b/6b,,4,3b/7b,,8b/1b,,
{16}2b-5[32:3]/6b,,,2b/7b-4[32:3],,,1b/7b,,1bw5[8:1],,,,1b,,,,
{16}3b,4,3,6,5,6,3,4,3,6,5,6,1,8,1,8,
{16}2b,4,3,7,5,6,2,4,3,7,5,6,1,8,2,2,
{16}6b,4,5,2,1,3,6,4,5,2,1,3,7,8,6,6,
{16}3b,5,4,7,8,6,3,5,4,7,8,6,2h[4:1],,,,
{16}8b,4,6,8h[384:1],4,2,8h[384:1],4,6,8h[384:1],4,2,8h[384:1],4,6,6,
{16}1b,4,3,1h[384:1],5,6,1h[384:1],4,3,1h[384:1],5,6,1h[384:1],4,3,3,
{16}8b,5,6,1,3,2,7,5,6,8,4,3,8,5,6,6,
{16}2b,4,3,8,6,7,1,4,3,1,5h[384:1],6,1h[384:1],4h[384:1],3h[384:1],6h[384:1],
{1}8bpp5[4:7],,1>7[1:1],{32},,,,2,,2,,2V48[32:7],,,,,,,,,,,,
&inote_6=
