&title=だれかぬいてくれ
&artist=ぬぬぬぬぬぬぬぬぬぬぬぬぬぬぬぬぬぬぬぬぬぬぬぬぬぬぬぬぬぬぬぬぬぬぬぬぬぬぬぬぬぬぬぬぬぬぬぬぬぬぬぬぬぬぬぬぬぬぬぬぬぬ
&first=-0.39
&des=S-ホO-シS-ノ (≧д≦)
&des_5=S-ホO-シS-ノ (≧д≦)
&lv_5=13+
&inote_5=(180)
{1},,,,,,,
{4},,
{32}E6/E4,B3/B6,B2/B7/Cf,E2/E8,,,,,,,,,,,,,
{32}2bx/7bx,3/6,4/5,,,,,,2bxV48[4:1]/7bxV51[4:1],3/6,4/5,,,,,,,,,,,,,,,,,,,,,,
{32}2bx/7bx,3/6,4/5,,,,,,2bxv3V51[8:3]/7bxv6V48[8:3],3/6,4/5,,,,,,,,,,,,,,,,,,,,,,
{32}2bx/7bx,,,,2bx/7bx,3/6,4h[16:3]/5h[16:3],,,,,,,,,,1bx/8bx,2/7,3/6,4h[32:5]/5h[32:5],,,,,,,,,,,,,
{8}4/5,4/5,4>2[8:1]/5<7[8:1],,4bxz8z4b[1:1]/5bxs1s5b[1:1]/D5f,,,,,,,,,,,,
{32}E4,B4,B5,E6,,,,,
{16}1xqq7[8:1],,,3h[16:3],1>4[8:1],,,,A1,,,,
{8}A6f/E6,1v4[8:1],2,1,A7f/E8,2pp4[8:1],3,2,A8/D1f/A1,3x,4x>5[8:3]/5x<4[8:3],4x/5x,A5/D5f/A4,,,,
{32}Ch[4:1]/B6/B3/B5/B4,,,,,,,,,,,,2x/7x,3/6,4/5,,,,,,2x/7x,3/6,4/5,,,,,,2x/7x,3/6,4/5,,
{32}Ch[4:1]/B6/B3/B5/B4,,,,,,,,,,,,2x/7x,3/6,4/5,,,,,,2x/7x,3/6,4/5,,,,,,2x/7x,3/6,4/5,,
{32}Ch[4:1]/B6/B3/B5/B4,,,,,,,,,,,,2x/7x,3/6,4/5,,,,,,2x/7x,3/6,4/5,,,,,,2x/7x,3/6,4/5,,,,,,,,,,
{4}Cf,B3/B4f/B5/B6,A6/D6/A5/A4/D4/A3/D5f,
{32}Ch[4:1]/B6/B3/B5/B4,,,,,,,,,,,,2x/7x,3/6,4/5,,,,,,2x/7x,3/6,4/5,,,,,,2x/7x,3/6,4/5,,
{32}Ch[4:1]/B6/B3/B5/B4,,,,,,,,,,,,2x/7x,3/6,4/5,,,,,,2x/7x,3/6,4/5,,,,,,2x/7x,3/6,4/5,,
{32}Ch[4:1]/B6/B3/B5/B4,,,,,,,,,,,,2x/7x,3/6,4/5,,,,,,2x/7x,3/6,4/5,,,,,,2x/7x,3/6,4/5,,,,,,,,,,
{4}Cf,B3/B4f/B5/B6,A6/D6/A5/A4/D4/A3/D5f,,Cf/B5/B4/A5/D5/A4/B2/D2/E2/B7/D8/E8/D3/D7,,,
{8}4/5s1[4:1],,3,,4<8[4:1],,8>4[4:1],,5s1[4:1],,,,,2bx,8bxv5[8:1]*v3[8:1],1bx/7bx,8bx,,E7/D7,,E3/D3,,7bpp3[4:3]*p4[4:3],,,,,,,,,,
{8}8-6b[8:1],,1-5b[8:1],,2-4b[8:1],,6qq5[16:3],,2-8[8:1],2,2-7[8:1],,2-6-3-5[8:3],,2bx,7bx,8bx,,,,,,,B1/B2,,,
{32}Cf/1bx,2bx,3bx,4bx,5bx,6bx,7bx,8bx,1bx,2bx,3bx,4bx,5bx,6bx,7bx,8bx,1bx,2bx,3bx,4bx,5bx,,,,
{8}7x-5b[8:1],2-4b[8:1],7,2,8-5b[8:1],1-4b[8:1],8-6b[8:1],1-3b[8:1],8,1,5x-1b[8:1],4x-8b[8:1],5<4b[4:1],4,5,,Cf,,2>5[8:1],5q2[16:3],2,,,8bx,,1bx/5bx,3bx-8[8:1]/7bx-4[8:1],,B1/B2/E2f/B6/B5/E6,,,,
{16}7,6,7,6,,,2,3,2,3,2,3,,,7,6,7,6,7-4<5-1[2:1],6,,,,,,,,,Cf,,,,
{8}2>5[8:1]/8<5[8:1],,2/8,,2,1-7v6b[8:1],3,1v4[8:1]*>4[8:1],,1-7v6b[8:1],,1,,3bxh[4:1],Ch[8:1],,
{8}8bx/7bx,1bx/6bx,,1bx/2bx,3bx/8bx,4bx/7bx,,2bx/5bx,3bx/6bx,7bxh[4:1]/C,,E5,6x-3[8:1],,,,
{8}4bx-8-2v4[8:5],,5,5,6,6,7,8bx-6v4-8b[8:5],,3bx,2bx-5[8:1],,A2f,,,,
{4}1x/2x-5[8:1],2x/6x-1[8:1],6x/8xh[8:1],,2x/6x-8[8:1],4x-8[8:1]/6x,4x/1xh[8:1],,
{8}3x/8x-6[8:1],,2xh[8:1]/8x,,,8x-2[8:1]/6x,,8x/5xh[8:1],,3v1b[8:1]/7v5b[8:1],,,,A8/E8/A7/A1/E2/A2/A3/E4/A4/A6/E6/A5,,,
{4}1x/2x-5[8:1],2x/6x-1[8:1],6x/8xh[8:1],,2x/6x-8[8:1],4x-8[8:1]/6x,4x/1xh[8:1],,
{8}3x/8x-6[8:1],,2xh[8:1]/8x,,,8x-2[8:1]/6x,,8x/5xh[8:1],,7h[8:3],,,
{16}A2f,E2f,B1f,,
{32},,,,1bx/7bx-1[8:1],2/6,3/5,A4f,,,,,
{16}7-3[8:1],,2-5[8:1],,7V16-2[8:3],,2,,7,,,,4>1[8:1],,5,,,,8,,7V13[16:3],6,5,4,7-4[8:1],,,,7,,1,,E7/B6,,2>5[8:1],,1<6[8:1],,2-6[8:1],,1,,2,,,8,8w4[8:1],,1/7,,8,,,,
{64}E4f/D4f/E6f/D6f,A3f/A6f,E3f/D3f/E7f/D7f,A2f/A7f,E2f/D2f/E8f/D8f,A1f/A8f,D1f,,,,,,,,,,,,,,,,,,,,,,,,,,
{32}2bx/7bx,3/6,4/5,,,,,,2bxV48[4:1]/7bxV51[4:1],3/6,4/5,,,,,,,,,,,,,,,,,,,,,,
{32}2bx/7bx,3/6,4/5,,,,,,2bxv3V51[8:3]/7bxv6V48[8:3],3/6,4/5,,,,,,,,,,,,,,,,,,,,,,
{32}2bx/7bx,,,,2bx/7bx,3/6,4h[16:3]/5h[16:3],,,,,,,,,,1bx/8bx,2/7,3/6,4h[32:5]/5h[32:5],,,,,,,,,,,,,
{8}4/5,4/5,4>2[8:1]/5<7[8:1],,4bxz8z4b[1:1]/5bxs1s5b[1:1]/D5f,,,,,,,,,,,,
{32}E4,B4,B5,E6,,,,,
{16}1xqq7[8:1],,,3h[16:3],1>4[8:1],,,,A1,,,,
{8}A6f/E6,1v4[8:1],2,1,A7f/E8,2pp4[8:1],3,2,A8/D1f/A1,3x,4x>5[8:3]/5x<4[8:3],4x/5x,A5/D5f/A4,,,,
{32}Ch[4:1]/B6/B3/B5/B4,,,,,,,,,,,,2bx/7bx,3/6,4/5,,,,,,2bx/7bx,3/6,4/5,,,,,,2bx/7bx,3/6,4/5,,
{32}Ch[4:1]/B6/B3/B5/B4,,,,,,,,,,,,2bx/7bx,3/6,4/5,,,,,,2bx/7bx,3/6,4/5,,,,,,2bx/7bx,3/6,4/5,,
{32}Ch[4:1]/B6/B3/B5/B4,,,,,,,,,,,,2bx/7bx,3/6,4/5,,,,,,2bx/7bx,3/6,4/5,,,,,,2bx/7bx,3/6,4/5,,,,,,,,,,
{4}Cf,B3/B4f/B5/B6,A6/D6/A5/A4/D4/A3/D5f,
{32}Ch[4:1]/B6/B3/B5/B4,,,,,,,,,,,,2bx/7bx,3/6,4/5,,,,,,2bx/7bx,3/6,4/5,,,,,,2bx/7bx,3/6,4/5,,
{32}Ch[4:1]/B6/B3/B5/B4,,,,,,,,,,,,2bx/7bx,3/6,4/5,,,,,,2bx/7bx,3/6,4/5,,,,,,2bx/7bx,3/6,4/5,,
{32}Ch[4:1]/B6/B3/B5/B4,,,,,,,,,,,,2bx/7bx,3/6,4/5,,,,,,2bx/7bx,3/6,4/5,,,,,,2bx/7bx,3/6,4/5,,,,,,,,,,
{4}Cf,B3/B4f/B5/B6,A6/D6/A5/A4/D4/A3/D5f,,Cf/B5/B4/A5/D5/A4/B2/D2/E2/B7/D8/E8/D3/D7,,,
{16},7b/8b,,6,5,6,,1b/2b,,3,4,3,,
{4}E1f/B8/B1,
(175)
{4}7p2[2:1],3,2-4<5-7[4:3],1,8,1,
(170)
{4}2h[2:1],5,6,1-5b[4:1]/7-3b[4:1],1/7,,
(175)
{4}5<6-3[2:1],4,3<5-8>1[4:3],2,1,1w5[4:1],
{24}E1,B1,C,B5,E5,D5,,,,,,,
{4}2/6,3v1b[4:1]/7v5b[4:1],3/7,,
{4}6<8[8:1]/5-8[8:1],6-3[8:1]/5>3[8:1],,
(170)
{4}8p3[8:1],
(150)
{4}1,
(140)
{4}8w4[8:3]*-4[8:3],
(130)
{4}8,
(90)
{4},
(80)
{4}2v4b[8:15]/6v8b[8:15],2bx/6bx,,,,,,,,
{128},,,,,,,,,
(180)
{8},E2/B2f/A2,,3/5,2bx-6[8:1],,2bx/8w4[8:1],,A8,,1/7,,2-6b[8:1],6-2b[8:1],2v4b[8:1]*v8b[8:1],,C,,
{64},,,,,,,,,7bx,,,,,,,
{4},,,,,,,
{32},,,,B4,E4,A3,,,,,,,,,,,,,,,,,,
(90)
{4},,,{16},,,,,,,
(180)
{8},,,,A4,A5,A3,A6,C,,,E1,E2,E8,E3,E7,B1/B8,,,E5,,2,1-7-2-6-3-5-3-6-2-7-1<8-2-7-3-6-4<5[2:11],8,
{1}7,,,,,,
{16},,,,,5bx,,,,,,,,,5bx,,,,,,,,,,5bx,,,,,,,5bx,,,5bx,5bx,5bx,5bx,5bx,5bx,5bx,5bx,5bx,5bx,5bx,5bx,5bx,5bx,5bx,5bx,5bx,5bx,5bx,5bx,5bx,5bx,5bx,5bx,5bx,5bx,5bx,5bx,5bx,5bx,,,,,5bx,5bx,5bx,5bx,5bx,5bx,5bx,5bx,5bx,5bx,5bx,5bx,5bx,5bx,5bx,5bx,,,,,
{8}E2/D2f/A2,,8w4[8:3],,,,,,2bx/6bx,4bx>1[8:1]/8bx<5b[8:1],,A8f/A4f,,4bx/8bx,2bx-5[8:1]/6bx-1[8:1],,2bx/6bx/Cf,,,,
{4}1x/2x-5[8:1],2x/6x-1[8:1],6x/8xh[8:1],,2x/6x-8[8:1],4x-8[8:1]/6x,4x/1xh[8:1],,
{8}3x/8x-6[8:1],,2xh[8:1]/8x,,,8x-2[8:1]/6x,,8x/5xh[8:1],,3v1b[8:1]/7v5b[8:1],,,,A8/E8/A7/A1/E2/A2/A3/E4/A4/A6/E6/A5,,,
{4}1x/2x-5[8:1],2x/6x-1[8:1],6x/8xh[8:1],,2x/6x-8[8:1],4x-8[8:1]/6x,4x/1xh[8:1],,
{8}3x/8x-6[8:1],,2xh[8:1]/8x,,,8x-2[8:1]/6x,,8x/5xh[8:1],,7h[8:3],,,
{16}A2f,E2f,B1f,,
{32},,,,1bx/7bx-1[8:1],2/6,3/5,A4f,,,,,
{16}7-3[8:1],,2-5[8:1],,7V16-2[8:3],,2,,7,,,,4>1[8:1],,5-1[8:1],,,,5,,2V86[16:3],3,4,5,2-5[8:1],,,,2-8[8:1],,8-4[8:1],,2,,E7/B6,,5x-2[8:1],,6x<1[8:1],,5x,,6x,,3,4,5,,8,,
{32}8x,1x/7x,2x/6x,3x/5x,4x,,,,
{64}4bx/5bx,E5f,3bx/6bx/E4f/E6f/D4f/D6f,E3f/E7f,2bx/7bx/E2f/E8f/D2f/D8f,E1f,1bx/8bx,,,,,,,,,,,,,,,,,,,,,,,,,,
{32}2bx/7bx,3bx/6bx,4bx/5bx,,,,,,2bV48[4:1]/7bV51[4:1],3bx/6bx,4bx/5bx,D5f,,,,,,,,,,,,,,,,,,,,,
{32}2b/7b,3bx/6bx,4bx/5bx,,,,,,2bv3V51[8:3]/7bv6V48[8:3],3bx/6bx,4bx/5bx,D5f,,,,,,,,,,,,,,,,,,,,,
{32}2b/7b,,,,2b/7b,3bx/6bx,4bxh[16:3]/5bxh[16:3],,,,,,,,,,1b/8b,2bx/7bx,3bx/6bx,4bxh[32:5]/5bxh[32:5],,,,,,Cf,,,,,,,
{8}4x/5x,4x/5x,4x>2[8:1]/5x<7[8:1],,4bxz8z4b[1:1]/5bxs1s5b[1:1]/D5f,,,,,,,,,,,,
{32}E4,B4,B5,E6,,,,,
{16}1xqq7[8:1],,,2h[16:3],1pp3[8:1],,,,1-5[8:1],,,,
{8}Cf,2v4[8:1],3,2,A7f/E8,1-5[8:1],2,1,A7/D8f/A8,3x,4x>5[8:3]/5x<4[8:3],4x/5x,A5/D5f/A4,,,,
{16}Cf,Cf,Cf,Cf,Cf,Cf,Cf,Cf,Cf,,,,,,2/7,,,,4-1[8:1]/5-8[8:1],,,,,,,,,,,,,,
{32}Chf[4:1]/B6/B3/B5/B4,,,,,,,,,,,,2bx/7bx,3/6,4/5,,,,,,2bx/7bx,3/6,4/5,,,,,,2bx/7bx,3/6,4/5,,
{32}Chf[4:1]/B6/B3/B5/B4,,,,,,,,,,,,2bx/7bx,3/6,4/5,,,,,,2bx/7bx,3/6,4/5,,,,,,2bx/7bx,3/6,4/5,,
{32}Chf[4:1]/B6/B3/B5/B4,,,,,,,,,,,,2bx/7bx,3/6,4/5,,,,,,2bx/7bx,3/6,4/5,,,,,,2bx/7bx,3/6,4/5,,,,,,,,,,
{4}Cf,B3/B4f/B5/B6,A6/D6/A5/A4/D4/A3/D5f,
{32}Chf[4:1]/B6/B3/B5/B4,,,,,,,,,,,,2bx/7bx,3/6,4/5,,,,,,2bx/7bx,3/6,4/5,,,,,,2bx/7bx,3/6,4/5,,
{32}Chf[4:1]/B6/B3/B5/B4,,,,,,,,,,,,2bx/7bx,3/6,4/5,,,,,,2bx/7bx,3/6,4/5,,,,,,2bx/7bx,3/6,4/5,,
{32}Chf[4:1]/B6/B3/B5/B4,,,,,,,,,,,,2bx/7bx,3/6,4/5,,,,,,2bx/7bx,3/6,4/5,,,,,,2bx/7bx,3/6,4/5,,,,,,,,,,
{4}Cf,B3/B4f/B5/B6,A6/D6/A5/A4/D4/A3/D5f,
{4}B2/E3/A2f,,,,,,,,,,,,3-5-1-7-1-5-3[2:7],,,,
{8}6h[2:1],,,,,6,,6,6,6h[8:3],,,,6,,6,7h[8:3],,,,7,8,,6,,4/6,4/6-3[8:1],,B4/E4f/B3,,1bx,,
