&title=Array (feat. Srezcat, DJ NECOJITA, Matatabi Sound System & blaxervant)
&artist=kobaryo feat. Srezcat, DJ NECOJITA, Matatabi Sound System & blaxervant
&first=-0.16
&des=Nyakusatsu vs Felicia vs Reinkarania vs ScreechKitty
&des_5=Nyakusatsu vs Felicia vs Reinkarania vs ScreechKitty
&lv_5=14+
&inote_5=(202){4},{1},,{32}4bx/5bx<4b[8:61],
B5/B4,C,B8/B1,{8}E1,{1},,,,,,,{4},,,{8}8b,
E2,{4}8/B2,8/B3,
{8}8/E4,B4,7,E2,{4}7/B2,7/B3,
{8}7/E4,B4,6,E2,{4}6/B2,6/B3,
{8}6/E4,B4,5,E2,{4}5/B2,5/B3,
{8}5/E4,B4,{4}7h[8:1]/8h[8:1],5h[8:1]/3h[8:1],2h[8:1]/1h[8:1],
7h[8:1]/5h[8:1],6h[8:1]/4h[8:1],5h[8:1]/3h[8:1],4h[8:1]/2h[8:1],
1h[8:1]/7h[8:1],{8}6/8,5,4/3,2,1/8,7,
6/4,5/3h[8:1],{16}4,4,3,3,2,2,1,1,{32}8,7,6,5,1,2,3,4,
7,6,5,4,2,3,4,5,{4}1b-5b[8:1],2b-6b[8:1],3b-7b[8:1],
4b,2x-6[8:1],2x/6x,{24}B7/1x-6[8:1]*-4[8:1],C,{6}B3,
{4}1x,3h[8:1]/8-6[8:1],5h[8:1]/8-2[8:1],3h[8:1]/8-6[8:1],
5h[8:1]/8-2[8:1],3h[8:1]/8-6[8:1],8/5h[8:1],{8}D2/E2,D4/E4,
{4}B6/E6/B5,6h[8:1]/1-3[8:1],4h[8:1]/1-7[8:1],6h[8:1]/1-3[8:1],
1/4h[8:1],{8}4bx/5bx,{16}1bx/8bx,1bx/8bx,{8}2bx/7bx,1bx,{4}1bxv3p5b[4:1],
,8<6[8:1],3h[8:1]/8>2[8:1],5h[8:1]/8<6[8:1],
3h[8:1]/8>2[8:1],5h[8:1]/8<6[8:1],3h[8:1]/8>2[8:1],4xh[8:1],
7xh[8:1]/1xh[8:1],6h[8:1]/5h[8:1],4h[8:1]/3h[8:1],2h[8:1]/1h[8:1],
8h[8:1]/7h[8:1],1,{32}E1,B1,B2,E3,E7,B6,B5,E5,{4}Ch[4:1],
,8h[4:1],{16},,2x,1x,{4}8-3[8:1],
7/8-5[8:1],1/8-3[8:1],7/8,{8}A7/B7,A5/B5,
A3/B3,C,{4}1-6[8:1],2/1-4[8:1],8/1-6[8:1],
2/1,{24}8x,1x,2x,8x,7x,6x,8x,1x,2x,8x,7x,6x,{4}Ch[4:1],
8x<5[4:1],5>2[4:1],2<7[4:1],7-4[4:1],
4-1[4:1],1-6[4:1],6-3[4:1],3-8[4:1],
8-5[4:1],{16}4,3,2,1,8,7,6,5,4/8,7,6,5,
4,3,2,1,8/4,3,2,1/3,2,1,8,7,6/2,1,8,7,
{4}6/1b,1-5[8:1],1/8,{8}7>2[8:1],2p6[8:1],
{4}7,{8}3-7[8:1],4,{4}3,{8}8-6[8:1],6-8[8:1],
8-4[8:1],2,{4}1-5[8:1],1,{8}6-2-7[4:1],5,
{4}6,1,{8}2>5[8:1],1<6[8:1],2-6[8:1],1-5[8:1],
2,1,{4}8x-4[8:1],8/1,{8}2<7[8:1],7q3[8:1],
{4}2,{8}6-2[8:1],5,{4}6,{8}1-3[8:1],3-1[8:1],
1-5[8:1],7,{4}8-4[8:1],8,{8}3-7-2[4:1],4,
{4}3,8,{8}7<4[8:1],8>3[8:1],7-3[8:1],8-4[8:1],
7,8,6-2[8:1],5/7,{4}6,{8}1-5[8:1],8-4[8:1],
1,8,3,2,1/8,7,8/1,8/1-5[8:1],
2/8,1/8,7-3[8:1],8/6,{4}7,{8}4-8[8:1],5-1[8:1],
4,5,2,3,4/5,6,7/8,1,
2/3,4,6/5-1[8:1],7,{4}8/5b,{8}3/4-8[8:1],2,
{4}1/4b,{8}6/5-1[8:1],7,{4}8/5b,{8}3/4-8[8:1],2,
1/4b,2x,{4}2xh[4:1],,7xh[4:1]/1xh[4:1],
,8xh[1:1]/1x-4-7-2b[2:1],,,,{32},D8/D3,
A7/A3,D7/D4,A6/A4,D6/D5,{16}5x-2-7-4-1-6-3-8-5b[16:117],{1},,,,,,,{4},,{16},,{24}E4,
B4,B5,{4}E6,{8},,,B3,
E2,E3,,,B4,B3/B2/E3,,,B5,
B2/E2/B1,,,,,{4}C,
,B7/B8,{8},B6/B5,,,{4}B4/B3,
B1/E1/B8,{8},,,B5,
B6,B7/B8/E8,,,B3,B4,,,{4}B7,
B5,{8}B3,Ch[8:13],,,,,,,,,,,,,{4}6-2-8[1:1],
,3,
,8-4-2[1:1],,1,
,2-6-4[1:1],,8,
,4-8-6[1:1],,2,
,6-4-8[1:1],,3,
,8-6-2[1:1],,1,
,2-8-4[1:1],,3,
,4s8[8:5],,2,
{8},,4,5,{4}6,{8}3,4,
5,6h[4:1],4,5,{4}6,{8}3,4,
5,6h[4:1],3,4,5,4,5,6,
5,4,3,4,5,6,7,8,
1,2,7,7,2,2,6,6,
3,3,5,5,5/4,4,4/6,6,
6/3,3,{16}3/6,7,8,1/7,8,2,3/8,1,2,3/1,2,3,
4h[2:1]/8h[2:1],,,,,,,,,D4,A3,D3,A2,D2,A1,D1,
A8,D8,A7,D7,{4}A6/Cf,3h[4:1],E4/B4,
{8}6,6h[8:1],{4}E6/B5,2h[4:1],E2/B1,
{8}7,7h[8:1],{4}E8/B8,3h[4:1],E4/B4,
{8}6,6h[8:1],{4}E6/B5,{8}1h[4:3],B2,B3,B4,
B5,B6,{4}B7,6h[4:1],B7/B6/C,
{8}3,3h[8:1],{4}C/B2/B3,7h[4:1],B4/B5/E5,
{8}2,2h[8:1],{4}B5/B4/E5,6h[4:1],B8/E1/B1,
{8}3,3h[8:1],{4}E1/B8/B1,8z4<5s1<8b[2:1],8b/1b,
,B1,B2,B3,
B4,B5,B6,B7,
B8,1,2,3,
4,{8}5/6,7,8/1,2,3/4,4/3,
5/2,6/1,7/8,7,7/1,1,1/6,6,
6/2,2,2/5,6,7/3,2,1/7,8,
1/2,3/8,{16}8/4,3,2,1/3,2,1,8,7,6/2,1,8,7,
{32}6/1,2,3,4,5,6,7,8,{4}1bx-6b[8:1]/5bxv2b[8:1],5b/1b,{24}5/1bw5b[8:1],2/6,3/7,4/8,,,{4}1b,
{8}1b,{16}2,1,{8}2-5[8:1],6-3[8:1],2-7[8:1],6-1[8:1],
2b,6b,{24}2,3,4,8,7,6,{8}5/4,7/1,{24}1,2,3,1,8,7,
{8}6/5b,4/3b,{4}1b/2,{8}8/7-4[8:1],3-6[8:1],7-2[8:1],3-8[8:1],
7b,3b,{24}7,6,5,1,2,3,{8}4/5,2/8,{24}2b,3,4,5/8bh[8:1],,,4b,
3,2,1/8b,,,{8}2b,{16}7,8,{8}7-4[8:1],3-6[8:1],7-2[8:1],3-8[8:1],
7b,3b,{24}7,6,5,1,2,3,{8}4/5,2/8,{24}8,7,6,8,1,2,
{8}3/4b,5/6b,{4}8b/7,{8}1/2-5[8:1],6-3[8:1],2-7[8:1],6-1[8:1],
2b,6b,{24}2,3,4,8,7,6,{8}5/4,7/1,{32}1b,2,3,4,5,6,7,8,
{4}1b/5b,2b/7b,{8}1b/8b,8/1,{16}2b,1,3,8,
4b,7,5b,6,8,7,4b,5,2b,1,3,4,{8}2b-6[8:1],6-8-3[4:1],
2b,7b,{4}5-1[8:1],5b,{16}7b,8,6,1,
5b,2,4b,3,1,2,5b,4,7b,8,6b,5,{8}8b-5[8:1]*z4[8:1],8b,
{4}8b,{16}8b,2,4,3,5,3,7,8,6-2[8:1],1,7,2,
{4}6b,{16}1b,8,2,7,3,6,4,5,2>5b[8:1],1,4,7,
{4}2b,{16}7b,8,7,8,4,3,4,3,1,2,1,2,
6,5,6,5,{4}6bz2b[8:1],{8}2b,4bz8b[8:1],,8b,
{4}7bw3b[8:1],{32}7b-5-3-1-7[8:27]*-2-4-7[8:27],B7,Cf,B2/B3/B4,{1},,,{4},,,{16},,{8}1-5[8:1],
1,8-4[8:1],8,7-3[8:1],7,
6-2[8:1],6,5-1[8:1],5,4-8[8:1],4,3-7[8:1],3,
2,2,{16}1,2,3,4,1/5,8,7,6,{32}1bv4b[8:1]/5bx-8b[8:1],2,3,4,5,6,7,8,
{4}1bx/5b,Cfh[4:3],{16},,,,,,,,,,,,2,
6,1,7,{32}8b-4[8:1],1,2,3,,,,,{4}7/8b<4[8:1],
{24}3b,2,1,8,{48},,,,{16}7,3,8,2,{32}1b-5[8:1],8,7,6,,,,,{4}2/1b>5[8:1],
{24}6b,7,8,1,,,2b,4,2,4,,,{8}1/8,{24}7b,5,7,{8}5,1/2,
{32}1/2,3/8,4/7,5/6,{96},,,,,,,,,,,,{24}3bx,4,5,2bx,3,4,1bx,2,3,8bx,1,2,{32}7bx,8,1,2,3/4bx,5,6,7,
8/1bx,2,3,4,5bx,6,7,8,1bx/5,2/6,3/7,4/8,{8}1/5,,,{4}1bh[8:1]/7bh[8:1],
{16}8b,8,8,8,{4}7bxh[8:1]/1bxh[8:1],,2bxh[8:1]/8bxh[8:1],
{16}1b,1,1,1,{4}8bh[4:7]/2bh[8:5],,,{1}1-7-2-6-3-5b[4:3],
{4},C,1-4[8:1],8/1-6[8:1],
2/1-4[8:1],8/1-6[8:1],2/1-4[8:1],8/1,
{8}8-5[8:1],8,{4}1/8-3[8:1],7/8-5[8:1],1/8-3[8:1],
7/8,{24}8xh,1xh,8xh,1xh,8xh,1xh,{8}8xh,Ch[8:1],{16},,,,,,,,1b,
2x,3x,4x,5x,6x,7x,8x,1b,2x,3x,4x,
5x,6x,7x,8x,1b,2x,3x,4x,5x,6x,7x,8x,1b,2x,3x,4x,
5x,6x,7x,8x,1,2,8,7,2,3,7,6,3,4,6,5,
3,4,6,5,2,3,7,6,1,2,8,7,1,2,3,4,
5,6,7,8,{4}1b,
E
