&title=Désive
&artist=MisomyL
&first=0
&des=albertoBradish
&lv_5=14+
&des_5=albertoBradish
&inote_5=
(185){4},,,,,,,,,E5,
E4,E3,
1h[1:1],,,B1,
8h[1:1],,,B8,
{1}7h[1:1],
{48}B7,E7,{4},{16},,,{48},{2}5,
{4}4h[1:1],,,B4,
{1}3h[16:17],
,Ch[4:3]/4xz8[2:1],
(230){4}4h[4:1],{8}E5,3h[4:1],,E6,{4}2h[4:1],
{8}E7,1h[4:1],,E8,{2}8x-4[8:1],
{4}5h[4:1],{8}E5,6h[4:1],,E4,{4}7h[4:1],
{8}E3,8h[4:1],,E2,{2}1x-5[8:1],
{4}1h[4:1],{8}E5,2h[4:1],,E4,{4}3h[4:1],
{8}E3,4h[4:1],,E2,{2}5x-1[8:1],
{4}8h[4:1],{8}E5,7h[4:1],,E6,{4}6xp3[2:1],
,,{2}Ch[4:1],
{4}Cf/5b-8[8:1],{8}1,2-5[8:1],,1,{4}8<5[4:1],
5>2[4:1],2<7[4:1],7<4[4:1],{8}4,3,
{4}2h[4:1],{8}6,4h[4:1],,7,{4}6h[4:1],
{8}7,8h[4:1],,7,{2}2h[4:1]/7x-5[8:1],
{4}4b-1[8:1],{8}8,7-4[8:1],,8,{4}1>4[4:1],
4<7[4:1],7>2[4:1],2>5[4:1],{8}5,6,
{4}7h[4:1],{8}3,5h[4:1],,4,{4}3h[4:1],
{8}4,4,1,1,2h[32:1]/8h[32:1],3h[32:1]/7h[32:1],{4}4h[32:1]/6h[32:1],
{16}5xh[4:1]/E6,E7,E8,E1,,,4xh[4:1]/E4,E3,E2,E1,,,7xh[4:1]/E7,E6,E5,E4,
,,2xh[4:1]/E3,E4,E5,E6,,,1xh[4:1]/B1,C,B5,A5,,,8xh[4:1]/B8,C,
B4,A4,{48},,,,,,{24}B1,B8,B7,B6,B5,B4,B3,B2,B1,E1/D1,E8/D8,E7/D7,E6/D6,E5/D5,E4/D4,E3/D3,E2/D2,E1/D1,
{1}Cf,
{2},,,,,6h[2:1],
5h[2:1],Ch[2:1],
{4}4x-2<1[8:7],{8},,,,8,1-5[8:7],
,,,,,,{4}5<6-8[2:1],
6x,8x-4[4:1],4<8[4:3],{8}6,6xh[8:7],
,,,,,,,,{4}8x-6>5[8:7],
{8},,,,4,5x-1[8:7],
,,,,,,{4}1>2-4[2:1],
2x,4-8[4:1],8xV64[4:3],{8}2,2xh[8:7],
,,,,,,,,{4}3/4x<7[4:3],
{8},,,,8,1q6[8:5],
,,,,,,,,{4}6/5x>2[4:3],
{8},,,,1,8p3[8:5],
,,{4}E3,E2,E1,
{1}3/7-3[4:13],
,2-6b[4:5],
{4},,,C,
1bh[4:3],{8},,,,4,1p4[8:5],
,,,,,,{4}5,
6-8-2[2:1],8-2-4-6b[4:3],{8}2-8-6-4-2[1:1],,,Cf,
,,,,,,,,{4}8bh[4:3],
{8},,,,5,8q5[8:5],
,,,,,,{4}4,
3-1-7[2:1],1-7-5-3b[4:3],{8}7-1-3-5-7[1:1],,,Cf,
,,,,,,,,7,
8p4[8:1],,2,{4}3p7[8:1],{8}5,6pp3[8:5],
{1}6h[4:3],
{8}2,1q5[8:1],,7,{4}6q2[8:1],{8}4,3qq6[8:5],
{1}3h[4:3],
{8}3/5,2,{4}1/7,{8}8,2,6,3,
5/4,6,7,8,4/1,3,2/7,1,
{16}7,6,{8}5h[8:1],{16}1,2,{8}3h[8:1],{16}8,7,6,5,4,3,2,1,
E7,E6,E5,E4,E3,E2,E1,E8,5x,4x,3x,2x,1xw5[8:1],1x,1x,1x,
{1}1x`Cf,
,,{4},,,{8}E6,
C,
E2,{32},,,,,,,,E8,E7,,,,,,,,,,,E4,E3,,,,,,,,,,,,,,,{4}E5,
E7/E3,E1,
{8}C,{32},,,,,,,,E2,E3,,,,,,,,,,,E6,E7,{4},,{16},,,{2}B6/B7/E7/Ch[4:1],
{4}E7f/1b-5[8:1],{8}1,6-8[8:1],,6/4,{4}4-7[8:1],
1-5[8:1],1>4[8:1],1<6[8:1],1,
8x-4[8:1],{8}8,3-1[8:1],,3/5,{4}5,
{16}1x,8,7,6,5,4,3,2,1/5x,4,3,2,1,8,7,6,
4,5,4,5,{8}4,{16}6,4,6,4,{8}6,{16}3,5,3,5,
{8}3,{16}5/4,4/5,,,6,5,6,5,6,5,{8}6,5/4,
{16}4,3,4,3,{8}4,{16}5,6,5,7,{8}5,{16}3,4,2,4,
{8}1,{16}6,5,7,5,{8}8,{16}6bx/1,5bx,4bx,3bx,(216){4}2bxh[4:23]/8-4-2-8-6-4>4>4>4>3>2<1<8<7<6>5>4s8[2:11],
{1},,,,,,(230){2}4,
3,
{4}2h[1:1],,,1,
{2}1h[1:1],8,
{1}8h[1:1],
{2}7,{4}8,7,
6h[1:1],,,5,
5h[1:1],,,4,
{1}4h[1:1],
{2}3,4,
{4}5h[1:1],,,6,
6h[1:1],,,7,
7h[1:1],,,8,
{2}8h[1:1],1h[2:1],
{1}C,
{4},,1,2,
{48}3/E1,B8,B7,B6,E6,5xh[48:19],,,,,,,,,,,,,,,,,,,{2}4h[2:1],
8h[64:63],4h[64:31],
{32}3bx/7bx,2bx/6bx,{16}1bx/5bx,,,{4}Cf/2b-5[8:1],2/6<1[8:1],6/1,
4-7[8:1],4/2,5-2[8:1],5/7,
{8}1,{16}3,4,{8}3,8,{16}3,4,{8}3,7,6,
{16}5,6,5,6,4,7,4,7,3x,2,1,8,4x,5,6,7,
{4}8-4[8:1],8/6-1[8:1],6/5-2[8:1],5/3,
8>4[16:3],8/2,{16}5x,6x,7x,8x,1x,2x,3x,4x,
{8}5/1,{16}3,4,{8}3,1/7,{24}3,4,5,6,,,{8}8/1,2/7,
{16}6,5,4,3,7,6,5,4,8,7,6,5,1,8,7,6,
{4}5b-1[8:1],4/5V38[8:1],5/7-4[8:1],7/2x,
3-8[8:1],{8}3-5[8:1],7,3/7,6,{16}4x,3x,2x,1x,
{4}8-4[8:1]/6-2[8:1],8x/6x,{16}3,2,1,8,7,6,{8}5,
5/E1,5/E3,5/E2,5/E4,4/E6,4/E8,4/E7,4/E1,
{4}4b-8[8:1],4,{8}7-3[8:1]*-5[8:1],8,{4}7,
{8}2-5[8:1],1-6[8:1],2,1,{16}3,4,5,6,7,8,1,2,
3b,4,3,4,{8}2,{16}6b,5,6,5,{8}7,{16}3b,4,2,5,
1,6,8,7,{24}6x,5,4,3,2,1,8/5x,6,7,8,1,2,3,4,5,6,7,8,
{16}1x,4,1x,4,1x,4,1x,4,8x,4,8x,4,8x,4,8x,4,
7x,4,7x,4,7x,4,7x,4,6,3,5,2,4x,1x,{8}3x,
{32}3b/1b,4x/2x,5x/3x,6x/4x,{8}7x/5x,{32},,,,6b/8b,5x/7x,4x/6x,3x/5x,{4}2x/4x,{32}3b/1b,4/2,5/3,6/4,{8}7/5,
,8-4[8:1],6,8,{16}1x,2,3,4,5x,6,7,8,
1bx,1bx,1bx,1bx,{32}1bx-5[8:1],2x/8x,3x/7x,4x/6x,{8}5x,{4}1/7-3[8:1],7/4-8[8:1],
4>1[8:1],4<7[8:1],4-8[8:1],4,
{16}7,8,6,1,{8}5,{16}2,1,3,8,{8}4/7,{4}6z2[4:1]/5-1[4:1],
{16},,,,,,,,2,1,3,8,4,7,5,6,
{4}5b>2[8:1],5/1<6[8:1],1-5b[8:1],1/4>1[8:1],
4-8b[8:1],4<7[8:1],4/1>4[8:1],1/8,
{16}8b/7h[4:1],1,2,3,{8}4h[4:1],{16}8b,7,6,5,4,3,2,1,8,7,
{8}2x/E6,3x/E7,4x/E8,5x/E1,7x/E4,6x/E3,5x/E2,4x/E1,
{16}8,5,8,5,{8}8,{16}2,7,2,7,{8}2,{16}1,4,1,4,
{8}7-4[8:1],7,7/2-5[8:1],2,{4}2/8-5[8:1]*-3[8:1],8,
{16}8,7,8,7,8,7,8,7,8,7,8,7,8,7,8,7,
{32}8x,7,6,5,8x,7,6,5,8x,7,6,5,8x,7,6,5,8x,1,2,3,8x,1,2,3,8x,1,2,3,8x,1,2,3,
{1},{2}Ch[2:1],
{64}5xh,D6,6xh,D7,7xh,D8,8xh,D1,1xh,D2,2xh,D3,3xh,D4,4xh,D5,,,,,,,,,,,,,,,,,{4}E7f/1b-5[8:1],
{8}1/2,3-7[8:1],,3/4,{4}6,
{16}8-5[8:1],6,1,7,{4}2,{16}3-7[8:1],4,3,2,{4}3,
2/8-4[8:1],{8}8/7,6-2[8:1],,6/5,{4}3,
{16}1-4[8:1],3,8,2,{4}7,{16}6,5,6,5,{12}6x>8-2-5[8:9],7xh,8xh,
{1}B7/E7/B6/Ch[1:1],
{16},,,,,,,,5/1,6/2,7/3,8/4,{4}1/5,
{16}1b,2,8,3,{8}7,{16}8b,7,8,6,{8}1,{16}3b,4,2,5,
1b,6,8,7,8b,8,8,8,{32}8bx,7,6,5,4,3,2,1,8/4bx,3,2,1,8/4bx,7/3,6/2,5/1,
{1}4b/8b-4[2:3],
{16},,,,,,,,,,,,,,,,E5,
B5,B6,B7,{8}B8,{16}E5,B4,B3,B2,{8}B1,{16}E5,E6,E7,E8,
,E5,E4,E3,{8}E2,{16}7,6,5,4,3,2,7,6,5,4,
3,2,7,6,5-1[8:1],4,3,2,{2}1,
E
