&title=SLASH
&artist=Yuta-Imai
&first=0.005
&des_5=砂糖Cafe
&lv_5=14+
&des=砂糖Cafe
&inote_5=(195){4},,,,3h[4:1],
{8}5,6h[4:1],,4,{4}4h[4:1],
{8}5,5h[4:1],,4,{4}3h[4:1],{8}5,6h[8:7],
{4}B1,B2,B3,3h[1:1],
B8,B7,B6,6,
4/5,5/4,4/3,4/3,
1/2,4/5,4/5,6/5,
{8}8/7,7,1/7,1,1/8,8,2/8,2,
1/2,2/1,3/8,3/8,4/7,7/4,6/5,6/5,
{4}Cf/B6/B7/B2/B3,5/4,{16}3,,,3,,,{8}4,
{16}5,,,5,,,3,4,2h[16:3],,,4,,,{8}5,
{4}B2/B3/B7/B6/Cf,5/4,{16}6,,,6,,,5,4,
7h[16:3],,,4,,,{8}5,6,{16}6,5,,,5,4,
{4}C/B2/B3/B7/B6,4/5,{16}2,,,2,,,{8}4,
{16}5,,,5,,,3,4,2h[16:3],,,4,,,{8}5,
{4}C/E7/E3/B7/B2/B3/B6,4/5,{16}7,,,7,,,5,4,
7h[16:3],,,4,,,{8}4,{16}6,,,6,{8}5,{16}5,4,
{8}6x/3x,3,3,3/5,5,5,5/2,2,
2/8,8,8,8/1,1,1,1/7,7,
7/4,4,4,4/6,6,6,6/3,3,
{16}5x/3x,,,4x/6x,,,{8}7x/5x,{16},8x/6x,,,{8}7x/1x,8x,
{16}1x,7,1,7,1,7,1,7,2x,6,2,6,2,6,2,6,
3x,5,3,5,3,5,3,5,4x,4,4,4,4,4,4,4,
{24}3bx,2x,1x,8x,{12}7x,{24}2bx,1x,8x,7x,{12}6x,{24}1bx,8x,7x,6x,{12}5x,{24}8bx,7x,6x,5x,{12}4x,
{8}1bxh[8:7],,,,,,,4,
,4/5h[16:3],,,{4}5h[8:1],5h[8:1],
6bh[8:1]/4bh[8:1],7bh[8:1]/3bh[8:1],8bh[8:1]/2bh[8:1],{64}A1,B1,C,B5,{16}A5,,,{4}4/8x-2[8:1],
5/8x-6[8:1],3/8x-2[8:1],5/8x-6[8:1],
3/8x-2[8:1],5/8x-6[8:1],8x/3,{16}2bx,5bx,{8}2bx,
{4}1x-3[8:1]/6x>4[8:1],1x-5[8:1]/6x<8[8:1],1x-3[8:1]/6x>4[8:1],1x-5[8:1]/6x<8[8:1],
1x/6x,{8}3b/7b,7b/3b,{4}5xh[8:1]/6xh[8:1],4xh[8:1]/3xh[8:1],
5/1-3[8:1],6/1x-7[8:1],4/1x-3[8:1],6/1x-7[8:1],
4/1x-5[8:1],1x/6,{8}7b,7b,{16}4x-8[8:1],5x,{8}4x,
{4}4b/2b,{8}1b,1b,{16}8x,7x,{8}8x,{16}7xw3[8:1],8x,{8}7x,
,,{4}E3/B3,B7/E7,Ch[16:1],
4/5h[4:3],B4,B3,B2,
8/1h[4:3],B8,B7,B6,
4/5h[8:7],4,4,{8}3,3,
{4}6/2h[2:1],6,7,{64}A1,B1,C,B5,{16}A5,,,{8}3/4,
3,3,3,6/3,6,6,6,
4/6,4,4,4,7/4,7,7,7,
{12}5x/7,5x,5x,7x,7x,7x,1x,1x,1x,3x,3x,3x,
{4}5bs1[8:3]*V73[8:3],,,4/5,
{16}4bx,5,5,5,5,5,5,5,4,5,5,5,5,5,5,5,
4,4,4,4,4,4,4,4,3,4,4,4,4bxh,5bxh,{8}4bxh,
{16}5bx,4,4,4,4,4,4,4,5,4,4,4,4,4,4,4,
5,5,5,5,5,5,5,5,6,5,5,5,{12}6bx,4bx,5bx,
{16}3bx,4,4,4,3x,4,4,4,3x,4,4,4,3bxh,4bxh,{8}3bxh,
{16}5bx,4,4,4,5x,4,4,4,5x,4,4,4,5bx,5bx,5bx,5bx,
{4}7bx,{16}4bx,4bx,4bx,4bx,{4}2bx,{12}5bx,4bx,5bx,
{4}4bxh[8:1],6x/7xh[8:1],3x/2xh[8:1],8x/1xw5[8:1],
{1}Cf/B4/B5/B6`B1,
{4},,,C,
{1}3h[4:7]/5V31V75[4:7],
,3V17V53[4:7],
5,
1V75V31[4:7],
3,
{2}3V17[4:3],7,
{8}6h[4:3],{24},,,,,,,,,,,,,,,,,,1,2,3,
{8}4,7,{4}4h[8:3]/7<5[8:1],{8},,3-6[8:1],3,
{4}7,{8}8-3[8:1],8,{4}4,4,
{8}5,2,{4}5h[8:3]/2>4[8:1],{8},,6<1[8:1],6,
{4}2,{8}3-6[8:1],3,{4}7,{8}8,8,
3,3,{4}3h[8:3]/6>4[8:1],{8},,2-6[8:1],2,
{4}7,{8}8-4[8:1],8,{4}3-7[8:1],3/6,
4v7[8:3]/5v2[8:3],{8},,,,1,8,
{1}8p6[8:5]/1q3[8:5],
5/4-1-4[2:3]*<5-8-5>4[2:3],
{8},,,,,,,,4,
4,{16}6,5,6,5,{4}7,{8}3,3,
{4}3/5h[4:1],{8}4,5/3h[4:1],,6,{4}6,
5h[4:3],{8}2,2,,3,{4}3h[4:3],
{8}7,7,,8,8h[4:1],{16},,,,2,1,
{8}2,2,{16}8,1,{8}8,{16}2,7,2,7,{4}3,
{16}5,4,{8}5,{16}3,4,{8}3,{16}6,5,6,5,{4}7,
{8}3/4,3,3,3,3,3,3,3,
5/3,5,5,5,5,5,5,5,
2/5,2,2,2,2,2,2,2,
7/2,7,7,7,7,7,{16}7,1,7,1,
8x,2,8,2,8,2,8,2,7x,3,7,3,7,3,7,3,
6x,4,6,4,6,4,6,4,5x,5,5,5,5,5,5,5,
{24}6bx,7x,8x,1x,{12}2x,{24}7bx,8x,1x,2x,{12}3x,{24}8bx,1x,2x,3x,{12}4x,{24}1bx,2x,3x,4x,{12}5x,
{8}8bxh[8:7],{24},,,,,,,,,,,,,,,,,,4,3,2,
{4}7h[8:1]/1h[8:1],2h[8:1]/5h[8:1],3h[8:1]/8h[8:1],4h[8:1]/6h[8:1],
5h[8:1]/4h[8:1],1h[8:1]/8h[8:1],3h[8:1]/7h[8:1],{64}A2,B2,C,B6,{16}A6,,,{8}7/1x-3[8:1],
1,{4}8xv3[8:1]/1x-5[8:1],1/8x<5[8:1],{8}4x-2[8:1]/8x-4[8:1],4,
{4}8/4x-7[8:1],{8}1x-6[8:1],1x,{4}6/1x>4[8:1],{8}1x/5,{24}5x,6x,7x,
{8}8x<6[8:1],8,{4}2x-8[8:1]/8x-4[8:1],8/2x>5[8:1],{8}2x-8[8:1]/7xv4[8:1],7,
{4}7x/2x,{8}1b/5b,1b/5b,{16}2,4,3,6,5,7,{8}4b/8b,
{4}8<5[8:1]/4-1[8:1],4/8-4[8:1],8/2-6[8:1],{8}2/7,7,
{16}8,5,{8}6,{16}1,4,{8}3,{16}8,5,{8}6,{4}1-3[8:1],
{8}5x/1x-4[8:1],6x,{4}7x/1-5[8:1],8/1-3[8:1],{8}8/1-4[8:1],7,
{4}6/1-5[8:1],{8}5/1-3[8:1],6,{4}7/1-4[8:1],8/1-5[8:1],
{8}8x/1x-7[8:1],8x,{4}4x/1-6[8:1],3/1-5[8:1],{8}4/1b,3,
2b/6b,{16}1,7,{8}1,8,{4}7h[16:3],{24}8x,7x,8x,7x,8x,7x,
{8}8bx-6[8:1],1x,{4}1x/8-5[8:1],2/8-4[8:1],{8}3/8-6[8:1],2,
{4}1/8-5[8:1],{8}1/8b,2,3/4,3/4,2/5,2/5,
1>4[8:1],5,{4}6<1[8:1],{8}5x,4x,3x,2x,
{16}7b/1b,,,5b/6b,,,{8}4bs8[8:3]/3bz7[8:3],{2}4b/3b,
{4},4b/5b,{16}3,,,3,,,{8}4,
{16}5,,,5,,,{8}4,{16}3,,,3,,,4,5,
{24}4x,5x,4x,5x,{48},{16}4,{4}6b,{16}6,,,6,,,{8}5,
6/4,6/4,5/3,3/5,{2}2h[4:1]/4h[4:1],
{8}4/5,5/6,6/7,7/8,8/1,1/2,{32}8,7,6,5,{8}4,
{16}3,3,5,5,4,4,6,6,2,2,7,7,{24}1,8,1,8,1,8,
2,7,2,7,2,7,3,6,3,6,3,6,4,5,4,5,4,5,{8}3bx/6bx,7bx/2bx,
{24}1b/8b,2b/7b,3b/6b,4b/5b,{4},,{16},{64},{192},{64}A2,B2,C,B6,{16}A6,
E
