&title=OSINT
&artist=椎乃味醂
&first=0
&des_1=Zirco
&des_2=Zirco
&des_3=Zirco
&des_4=Zirco
&des_5=Zirco
&lv_5=14+
&des_6=Zirco
&des_7=Zirco
&des=Zirco
&inote_5=(177){4},,,,,,,,,,,,,,,,2-6[8:1],
3-7[8:1],{2}4w8[8:1],
{16}6b/2b,,,3,,,{8}4,{4}5h[2:1],1,
{16}4,,,6/5,,,{8}7,{4}7/8-4[8:1],2h[16:1],
{16}3/5,,,6,,,{8}3/5,{4}2h[2:1],1,
{16}5,,,6/5,,,{8}7,{4}7/8-4[8:1],2h[16:1],
1>4[8:1],7,1q5[8:1],7,
1s5[4:1],3,{8}2,3x/6x,1x/7x-4[8:1],6x/4x,
{16}2,,,3h[16:3],,,{8}5,6,7/5,8-4[8:1],8,
{16}3h[16:1],,,2h[16:1],,,{8}1-5[8:1],6,4,{4}7-4[8:1]*-3[8:1],
{16}7b,,,2,,,{8}1,{16}7,8,{8}7,6,5,
{16}4/6,,,5/3,,,{8}2/4,{2}2q7[8:1]/4p7[8:1],
{16}1,,,7/3,,,6,5,{4}6v7[8:1],{16}3,3,,,1,
,,2/6,,,3,4,{4}3v2[8:1],{16}6,6,,,{8}5,
{16}1,8,,,{8}6,{2}7-4[8:1]/8-3[8:1],
{16}5,,,6/4,,,{8}3/5,8/1-5[8:1],3/4-7[8:1],{16},,,,2h[16:3],
,,8,,,{8}7h[8:1],6-1[8:1],5,{4}4,
{16}2h[16:3],,,1-6[8:1],,,{8}2,{4}3h[4:1],6v1[8:1],
{16}1b<6[8:1],,,2,,,{8}3,{4}4h[4:1],8-5[8:1],
{16}5-8[8:1],,,4,,,{8}2,{4}1-3[8:1],{16}7v4[8:1],7,,,4<7[8:1],
,,3,,,{8}2,{4}1h[4:1],8-3[8:1],
3-7[8:1],7-4[8:1],4-8[8:1],{16}3,2,{8}1,
{4}1b-5[8:1],{8}8,7,{4}6-2[8:1],5,
{16}4,,,3,,,{8}2,{4}1>4[8:1]/5<8[8:1],1/5,
{8}5,{16}6,5,{8}7-5[8:1],7,2-4[8:1],2,{4}6,
{16}5,6,7,8,1,2,3,4,{2}5h[4:1],
{4}8b/1b-5[8:1],8V61[4:1]/1>4[4:1],{2}1V36[4:1],
{24}5x,4x,3x,2x,1x,8x,7x,6,5,4,3,2,{2}1v4[8:1]/5-8[8:1],
{4}6-3[8:1],6V82[4:1]/2v4[6:1],6/2<5[4:1],3p6[4:1],
3,4>5[4:1],{2}4-8b[8:1],
{24}1,2,3,4,5,6,2xV48[4:1],3x,4x,5x,6x,7x,{2}2/8xV61[4:1]*-3[8:1],
{4}5xV38[4:1],8>5[4:1]/5<1[4:1],{2}5xV31[4:1],
{24}8x,7,6,5,4,3,7x,6,5,4,3,2,{2}1w5[8:1],
{24}2x-5[8:1]/8x-5[8:1],3x/7x,6x/4x,5x,,,,,,,,,{2}4xw8[8:1],
{4}2h[8:1]/6h[8:1],3h[8:1],{8}4,{16}6,5,{8}7,2,
{4}1h[8:1]/5h[8:1],8h[8:1],{8}7h[8:1],5,4/6,3,
{4}2h[8:1]/6h[8:1],3h[8:1],{8}4,{16}6,5,{8}7,7,
{4}8h[8:1]/4h[8:1],1h[8:1],2<4[4:1],4/2,
8h[8:1],7h[8:1],6h[8:1],5h[8:1],
4h[8:1]/8h[8:1],6h[8:1],4h[8:1],2h[8:1],
5h[8:1]/3h[8:1],6h[8:1],4h[8:1]/7h[8:1],8h[8:1],
7-4[8:1],7/3-8[8:1],{2}3/5w1[8:1],
{4}7bh[8:1]/3bh[8:1],{8}5/4,3/4,{16}2,4,{8}2,5,6/4,
7-4[8:1],6,7/1,2,{2}3-8[8:1]*-7[8:1],
{8}5/6,5/4,{16}3,4,2,4,{8}1,8/1,7-4[8:1],6/5,
4-8[8:1],3,2,{16}1,2,{8}3-8[8:1],4/5,3,6,
7,7/1,{16}3,4,{8}2,8/1,{16}6,5,{8}7,8/1,
2,2/4,{16}6,5,{8}7,1/8,{16}3,4,{8}2,1/8,
7/2,{16}3,5,3,6,2,7,1-4[8:1],8,{8}1-6[8:1],,,3,
5/4,{16}6,5,{8}7,1/8,{16}3,4,{8}2,1/8,
{4}2bh[8:1]/7bh[8:1],{8}3/4,4/5,{16}6,5,{8}7,6/5,5/4,
{16}3,4,{8}2,3/4,4/5,6-1[8:1],7,6/3-8[8:1]*-6[8:1],2,
{4}3b,{8}7x/5x,6/4,{16}3,4,{8}2,1-5[8:1]*-4[8:1],8/2,
{4}1,{16}6,5,{8}6,7/4,{16}3,4,{8}1-4[8:1]*-5[8:1],2/8,
{4}1,{8}6x/3x,2,{16}4,5,{8}2,3/6,{16}2,4,
{8}1,8/1,7,6/5,{16}4,5,{8}3,6-1[8:1]/2v4[8:1],4/5,
,,3x/6x,7,{16}5,4,{8}7,6/3,{16}7,5,
{8}8,1/8,2,3/4,{16}5,4,{8}6,3-8[8:1]/7-4[8:1],1/5,
{4}Cf,{8}1,{16}7,8,{8}6,{16}2,1,{8}3,4/5,
{16}6,5,6-1[8:1],5,{8}7,4,{2}3-5[8:1]*-1[8:1],
{8}8/7,6/5,5/4,{16}3,4,{8}2,{16}6,5,{8}7,5/4,
{16}2,1,2-5[8:1],1,{8}3,8,{4}7-5[8:1],{16}5-8[8:1],4,3,2,
{8}1,{16}2,3,{8}4/7,{16}3,2,{8}5/1-5[8:1],1,8,8,
{16}7/4,6/3,5/2,1/4,{8}8/3<6[8:1],3/8,{2}8>6b[4:1],
{16}7h[4:7],,,6,,,{8}6,{4}6,6h[8:1],
{16}6,,,6,,,{8}6,{2}6<4b[4:1],
{32}6x,7x,8x,1x,2x,3x,4x,5x,{8}6x-2[8:1],2-6[8:1],{2}6p2[8:1]*V47[4:1],
{32}1x,2x,3x,4x,5x,6x,7x,8x,{8}1x-5[8:1],4-7[8:1],1<3b[4:1],4,{32},,,,,,,,7x,
6x,5x,4x,3x,2x,1x,8x,{8}7x-3[8:1],3-7[8:1],{2}7-4[8:1]*V58[16:3],
{32}4x,3x,2x,1x,8x,7x,6x,5x,{8}4x-8b[8:1],1-6[8:1],4<2b[4:1],1,{4}4bx,
5bh[4:1],{8}1V35[4:1],6-1[8:1]/3V57[4:1],1V74[4:1],6,,,{4}8x>6[4:1],
{8}6xV42[4:1],7,8x-4b[8:1],8,{4}8b,
5bh[8:1]/1bh[8:1],{8}6v1[8:1],1V75[16:3],{2}6V47b[4:1],
{32}8xV64[8:1],1x,2x,3x,{8}4x,{4}8/3h[8:1],{32}2x,3x,4x,5x,6x,7x,8x,1x,6x-3[8:1]/2x-7[8:1],5x,4x,3x,2x,1x,8x,7x,
{4}6b/2b,{8}1,3/4,{16}6V83[4:1]/5-1[8:1],7/4,{8}8/3,{4}6/5,
{8}4,4,{32}8x,7x,6x,5x,4x,3x,2x,1x,{8}4xV62[16:3]/8xv7[16:3],5x/6x,,,{4}3xh[8:1]/6xh[8:1],
{32}1x,2x,3x,4x,5x,6x,7x,8x,{8}1x-3[8:1]*-6[8:1],6V85[4:1],{4}1,
{8}4-8[8:1],3,4/7,6,5-7[8:1]*-8[8:1],8V64[16:3],{4}5,
2h[4:1],{8}1,3/8,{32}7xv4[8:1],6x,5x,4x,3x-8[8:1],2x,1x,8x,{8}7x,3x,
{4}5x-1[8:1],{8}5/2-6-3[4:1],3,{2}2/4-8b[8:1],
{4}1h[4:1],{8}5,6/2,{32}2xv5[8:1],3x,4x,5x,6x-1[8:1],7x,8x,1x,{8}2x,6x,
4x-8[8:1],3,4/7-3-6[4:1],6,5-1b[8:1],5-8b[8:1],{16},,,,3,
,,3,,,{8}3,{4}3/8-5[8:1],3,
{16}3,,,3,,,{8}3,{4}3/7h[4:1],{16}3,3,{8}7,
{16}3/7,,,3,,,{8}3,{4}3/8-5[8:1],3/8,
{16}3,,,3,,,{8}3,3,5/6,7/8-4[8:1],1/2,
{16}3,,,3,,,{8}3,{4}3/8-5[8:1],{16}2,2,,,3,
,,3,,,{8}3,7,1/8,3,5/6,
{16}8,,,8,,,{8}8,{4}8/4-1[8:1],8,
{16}8,,,8,,,{8}8,{16}1,7,2,6,3,5,3,5,
E
