&title=怪獣になりたい
&artist=Sakuzyo feat. 初音未来
&first=1.15
&des=怪獣鉴
&lv_5=14+
&inote_5=(110)
{4}1>1[1:1],,,,1>5[2:1],,5w1[8:1],,
{8}3h[4:2]/4,,,,,,,,6h[4:2]/5,,,,,,,,
{64}78,16,25,3h[64:12]/4h[64:12],,,,,,,,,,,,,Cf/B1/B2/B3/B4/B5/B6/B7/B8,,,,,,,,,,,,,,,,12,38,47,5h[64:12]/6h[64:12],,,,,,,,,,,,,Cf/B1/B2/B3/B4/B5/B6/B7/B8,,,,,,,,,,,,,,,,
{32}18,,,,3,4,3,5,4,6,5,6,3,5,4,5,2h[8:1]/7h[8:1],,,,,,27,,,,,,,,,,
(220)
{4}1-5[8:1]/8-6[8:1],1-3[8:1]/8-4[8:1],1-5[8:1]/8-6[8:1],1-3[8:1]/8-4[8:1],1-5[8:1]/8-6[8:1],1-3[8:1]/8-4[8:1],1-5[8:1]/8-6[8:1],18,
(110)
{32}7x/4x,,6,5,6,,4,,35,,2,,4,,5,,
{24}74,6,5,64,5,4,35,,,24,,,
(220)
{4}1^3[8:1]/8q4[8:1],1p5[8:1]/8^6[8:1],1^3[8:1]/8q4[8:1],1p5[8:1]/8^6[8:1],1^3[8:1]/8q4[8:1],1p5[8:1]/8^6[8:1],1^3[8:1]/8q4[8:1],18,
(110)
{32}2x/5x,,3,4,3,,5,,35,,4,,6,,,,7,5,6,4,5,3,4,2,35,,3,,46,,6,,
{1}3-1v8-6[8:5]/5,
{16}5V71[8:4]/2-6[8:1],,,,,,,,,2-6[16:1],3,4z8b[12:1],5,,,,
{4}3,5h[16:1]/6h[16:2],4h[16:1]/3h[16:2],5h[16:1]/6h[16:2],4h[16:1]/2h[16:2],5h[16:1]/7h[16:2],4h[16:1]/2h[16:2],5h[16:1]/7h[16:2],5h[16:1]/6h[16:2],5h[16:1]/6h[16:2],5h[16:1]/7h[16:2],5h[16:1]/7h[16:2],4h[16:1]/3h[16:2],4h[16:1]/3h[16:2],5
{32}B7,B7,B7,B7,B7,B7,B7,B7,B7,,,,,,,,
{4}2h[16:2]/4h[16:1],7h[16:2]/5h[16:1],8h[16:1]/6-3[16:1],6/4h[16:1],
{4}2h[16:2]/1h[16:1],3h[16:2]/4h[16:1],6h[16:2]/5h[16:1],7h[16:2]/8h[16:1],
{4}3-8[16:1]/6,3/1-6[16:1],1/7z3[4:1],7/3z7[4:1],7,
{16}1,,,26,2q2b[16:3]/6q6b[16:3],,,,,,,,
{24}1x/5x,2,3,4,5,6,73,8,1,2,3,4,51,6,7,8,1,2,37,4,5,6,7,8,
{24}15,4,3,2,1,8,37,6,5,4,3,2,15,8,7,6,5,4,37,2,1,8,7,6,
{32}25,3,4,5,6,7,8,1,26,3,4,5,6,7,8,1,26,5,4,3,2,1,8,7,62,5,4,3,2,1,8,7,6/1<1b[2:1]*>1b[2:1],
,,,,,,,
{8},,,,,,6h[8:7]/5,5,4,4,3,3,2,2,
{16}3h[8:3]/4,4,5,5,6,6,7,7,
{32}4,6,4,6,3,7,2,8,
{32}1,1,1,1,1,1,1,1,1,1,1,1,1,1,1,1,1w5b[16:1],1,1,1,1,1,1,1,1b,
{32}B8f/E2f/5?-8^2v3^5[1.03##0.4],,,,,,,,,,,,,,,
{8}2hb[2:1],,,,
{24}5,,,2,3,2,4,3,4,
{48}2,3,4,7,6,5,5xp7[16:1]/4xq1[16:1],,,,,,,,,,,,,,,,,,,,,,,,
{24}2b/7b,,,18,,,2,1,8,
{48}7,3,2,1,8,7,6-1[16:1]/3-8[16:1],,,,,,,,,,,,
{16},,,,12,,,
{96}1b/2b,38,47,5h[96:14]/6h[96:14],,,,,,,,,,,,,,,Cf/B1/B2/B3/B4/B5/B6/B7/B8,,,,,,,,,,,,
{16}78,,,
{96}7b/8b,16,25,3h[96:14]/4h[96:14],,,,,,,,,,,,,,,Cf/B1/B2/B3/B4/B5/B6/B7/B8,,,,,,
{16},18,,
{24}3,4,5,6,5,4,3,27,,
{16}1s5b[8:1]/8z4b[8:1],,1h[32:3]/8h[32:3],,,,,,
{16}7q4b[8:1],,,7hb[16:5],,,,,2qq5b[8:1],,,2hb[16:5],,,,,7pp4b[8:1],,,7hb[16:5],,,,,1p5qq5b[8:1],,,5b,,,
{16}6,7,
{24}2b/8b,,3b/5b,,6b/8b,,1b/3b,,4b/6b,,1b/7b,,
{48}3b/7h,2,1,8/4h,7,6,5/1h,4,3,2/6h,1,8,7/3h,6,5,4/8h,3,2,1/5h,8,7,6/2h,5,4,
{48}3h[48:18]/8,1,2,,4,5,6,7,8,1,2,,4,5,6,7,8,1,
{8}2b,
{64}8h[1:1]/3b,2,1,,7,6,5,4,3,2,1,,7,6,5,4,3,2,1,,7,6,5,4,3,2,1,,7,6,5,4,3,2,1,,7,6,5,4,3,2,1,,7,6,5,4,3,2,1,,7,6,5,4,3,2,1,,7,6,5,4,
{16}3,,,6h[32:5]/8h[32:5],,,1h[32:3]/4h[32:3],,
{64}23,
{384}1V72[8:1],4V63[8:1],,,,,
{64}58,67,,,,,,,,,,,,,
{4},
{24}27,,36,,4,3h[6:1]/5,,,,
{32}4,,5,,46,,3,4,3,,6,5,46,,3,,24,,5,6,
{24}34,2,2,4/5-2[16:1]*-8[16:1],6,6,,,,,,,
{32}6,5,6,3,5,3,6,4,6h[16:1],,5h[16:1],,4h[16:1],,3h[16:1],,6,4,5,3,4,3,5,,C,,4,,5,,3,6,2,7,1,8,2,7,1,8,1-5[16:1],,7,,2,8,3,,
{64}1/7h[4:1],,Cf,,
{32},,,,,,,,
{16}48,26,,
{96}1/5,26,37,4-1^8b[8:1]/8-5^4b[8:1],,,,,,,,,,,,,,,,,,,,,
{4},
{16}B7/B6/E7f,,,B3/B4/E4f,B1/B8/E1,,C,,
{32}3,5,3,6,5,6,4,5,
{64}3h[64:3],,,2h[64:3],,,1h[64:3],,,8h[64:3],,,7h[64:3],,,,63,,,,,,,,
{24}5,4,5,
{16}36,,2,7,
{32}18,,,,2,,1,,3,,8,,4,,7,5,6,,8,,7,1,6,,2,,5,,3,4,2,,8,,1,,7,2,6,,3,,5,,4,,7,8,6,,4,5,3,,1,2,8,3,7,4,6,5,3,7,
{24}1^4[16:1]/Cf,,,,,,,,,,,8,8^5[16:1],,,,,,1,,,1,,,1^4[16:1],,,,,5,
{12}5,6,
{24}7,8,8^5[16:1],,,,2,,,,3,,,,4^1[16:1],,,,,,8hx[24:1],,7,,6,,5^8[16:1],,,,1,,2,,,,3,,4^1[16:1],,,,,,,,7,6,5,,5^8[16:1],,,3hx[24:1],,,2,,,,,,
{2}1-4pp4b[32:3],3q1b[32:3]/5p8b[32:3],1q6b[32:3]/8p3b[32:3],4-1^7b[32:3]/7v6^4b[32:3],
{32}18,,,,2,4,3,5,4,6,5,7,4,,,,18,,,,B6,B5,B4,B3,C,,,,2,,,,18,,,,7,5,6,4,5,3,4,2,5,,,,18,,,,B3,B4,B5,B6,C,,E1,,E6,,E4,,18,,,,2,4,4,3,6,5,5,7,4,,,,18,,,,6,4,4,5,3,6,6,4,7,,,,27,,,,
{48}4,5,4,5,4,5,3,6,3,6,3,6,2,7,2,7,2,7,
{64}1,2,3,8,7,6,2,3,4,7,6,5,2,3,4,,,,,,,,,,,,,,,,,,,,,,,,,,,,,,,,,,,,,,,,,,,,,,,,,,,,,,,,,,,,,,,,,,,,,,4?-1^7v6^4[8:1],,,,,,,,,,,,,,,
