&title=Rise of the World
&artist=cosMo@暴走P
&first=0
&des=N
&lv_5=14
&inote_5=(212)
{1},
{4}2-4[4:1],,5,,6-4[4:1],,3
,,
{4}2-5[4:1],,6,,6-1[4:1],1,2,38,
{4}4/7-4[4:1],,3,,5/2-5[4:1],,6,,
{4}4/7^2[4:1],,3,,5/4^1[4:1],6,7,18,
{4}2-6[4:1]/7,,5,,7-3[4:1]/4,,2,,
{4}1-5[4:1]/4,,7,,8<3[4:2]/4,3,2,1,
{4}2h[4:2]/8V61[4:2],,,,
(202)
{4}8h[4:2]/3q4[4:2],,{12},,7,,6,,
(192)
{1}3b<2[4:7]/5bq1[4:2],
(182)
{1},
{16}5,6,7,8,{4}2/1h[4:1],
(212)
{8}4b,,8,5,7-4[8:1],,4,3,
{8}2h[8:2],,4,3,6,4,5/7h[8:2],,
{16}8,1,2,3,{8}8v5[8:1],,4,3,2-6[8:1],,
{8}7h[8:2],,5,6,3,5,4/2h[8:2],,
{16}1,8,7,6,{8}1v4[8:1],,5,6,7-2[8:1],,
{8}3,,4^1[8:1],5,6,7,7h[8:2],,
{16}1,2,3,4,{8}1-6[8:1],,5,4,3-7[8:1],,
{8}6,,5^8[8:1],4,3,2,2h[8:2],,
{16}8,7,6,5,{8}8-3[8:1],,4,5,6v3[8:1],,
{8}4h[8:2],,{16}2V48[16:4],1,8,,{8}2,,7h[8:2],,
{16}1,2,3,4,8,1,2,3,4/8-3[8:1]*-5[8:1],,,,8,,,,
{8}6h[8:2],,{16}4V61[16:4],3,2,,{8}4,,3h[8:2],,
{16}8,7,6,5,1,8,7,6,5-2[8:1]/1-6[8:1],,,,15,,,,
{8}3h[8:2],,{16}5,6,7,8,3,2,1,8,{8}5>8[8:2],,7,,
{16}7,6,5,4,1,2,3,4,8V62[8:2],,,,
{8}82,,4-1[8:1],,4-7[8:1],,4,,
{16}2,3,4,5,8,7,6,5,8,1,2,3,45,6,7,8,
{1}1/2>2[8:14],,5<3[8:12],,7>5[8:12],,
{8}1V75[8:6],,,,5,,4,,3s7[8:2],,{4}5-1[8:1],,,
{8}8h[8:1]/3,,8h[8:1]/2,,8h[8:1]/4,,7h[8:1]/3,2,
{8}1/6^1[8:1],,4,,3v8[8:1],,5,,
{16}6h[8:1],,,,1h[8:1]/7h[8:1],,,,2h[8:1]/4h[8:1],,,5,3h[8:1],,6,,
{8}5/7p3[8:1],,3,,1^4[8:1],,4,,
{16}7h[8:1],,,,5h[8:1]/8,,,,7h[8:1]/4,,,3,6h[8:1],,2,,
{8}1^6[8:1]/5,,4,,5-8[8:1],,5-2[8:1],,
{8}5,,6h[8:2],,4,3,2/4-2[8:1],5,
{8}4-6[8:1]/6,,4-8[8:1],,4,,4b,,
{8}1>6[8:3],,6,6<3[8:3],,3,3<8[8:3],,8,8V24[8:3],,,5,6,7,,
{8}8<3[8:3],,3,3>6[8:3],,6,6>1[8:3],,1,1V75[8:3],,,4,3,2,,
{8}1-4[8:1],,7,8-5[8:1],,3,2-5[8:1],,8,1V74[8:3],,,4,3,2,,
{8}5-8[8:1],,3,4-1[8:1],,7,6,,5-8[8:1],4-1[8:1],5,4,,8,17,,
{16}2,6,3,5,4,6,3,,7-5[8:1],,2-8[8:1],,7-3[8:1],,2,,
7,,,,2,,4,,3,5,3,5,2h[8:2],,,,
5,6,7,8,2,3,4,5,1,2,3,4,5-8[8:1]/1-4[8:1],,,,
51,,,,36,,27,,1-5[8:1]/8-4[8:1],,,,,,,,
3,5,2,6,1,7,8>5[8:2],,,,6,,6,,,,
8,1,2,3,7,8,1,2,6,7,8,1,5,,,,
3h[8:2],,4,,4,,,,7h[8:2],,5,,5,,,,
64,,3,4,2,,6,5,7,,3,5,1,7,{24}2,3,4,
{1}5/1bqq6[8:14],,4qq8[8:12],,
{8}18,1,24,2,35,3,46,6,57,7,68,8,17,17,26,26,
{16}3b,5,3,5,4b,6,4,6,5b,7,5,7,4b,8,4,8,
{4}3b-7[8:2]/1b-5[8:2],,,
{32}1,2,3,4,5,6,7,8,{4}5/1bv4[8:2]*v6[8:2],,,
{16}3,2,18,7,6h[8:1],,1,2,3h[8:1],,5,6,7h[8:1],,4,3,2,1,8,7,
{16}62,,,3,{8}8<4[8:2],4,4V26[8:2],,,1,1h[8:3],,{16}5,,5,,2,4,3,5,4,6,5,7,
{8}5V38[8:2],,15,,{16}6,,,4,1-5[8:1],,25,,{8}1/6-1[8:1],,64,,
{16}5,6,7,8,1,2,3,4,{8}1pp6[8:3]/5h[8:2],,,4,4h[8:2],,,
{16}3,4,2,,5,4,6,,3,4,1,,5,4,6-2[8:1],,3,,{4}6/1bv7[8:2]*v4[8:2],,,
{16}6,5,43,2,1h[8:1],,5,6,7h[8:1],,1,2,3h[8:1],,8,7,6,5,4,3,
{16}26,,,7,{8}2-5[8:1],5>7[8:2],2,,,5,5-2[8:1]*-8[8:1],,5,,
{16}1-5[8:1],8,1,8,1b,,,,
{8}46,4,47,4,48,4,{24}14,8,7,6,,,
{8}53,5,52,5,51,5,{24}85,1,2,3,,,
{16}4,6,4,6,3,7,3,7,2,6,2,6,1,7,1,7,
{24}8h[8:1]/2,3,4,5,,,2h[8:1]/7,6,5,4,,,{8}1-5[8:1],7-3[8:1],1,7,
{16}8b,,,,1,5,3,7,5h[8:2],,,,,1,4,6,1h[8:2],,,,,4,2,6,4h[8:2],,,,8h[8:2],,,,
{16}5,,,,8,4,6,2,4h[8:2],,,,,8,5,3,8h[8:2],,,,,5,7,3,5h[8:2],,,,1h[8:2],,,,
{12}4h[12:4],,2,,3,,1h[12:4]/4,,3,,2,,1/4h[12:4],,2,,3,,1/4,,37,,26,,
{12}5h[12:4]/8,,7,,6,,5h[12:4]/8,,7,,6,,4h[12:4]/5h[12:4],,,,,,36,,27,,18,,
{12}2,4,3,7,5,6,3,4,2,5,1,7,
{24}2b,3,4,,,,8b,7,6,,,,1bp5[8:1],2,3,,,,{12}1b,,,
{12}3,4,2,6,5,7,4,6,2,4,8,6,
{24}1b,2,3,,,,7b,6,5,,,,8b-4[8:1],1,2,,,,{12}8b,,,
{12}3,4,2,5,4,5,3,4,4,{24}2,3,2,,,,
{12}6,5,7,4,5,4,6,5,5,{24}7,6,7,,,,
{12}2,1,3,{24}7,6,5,,,,{12}2,4,3,{24}8,7,6,,,,
{24}2,3,4,,,,7,6,5,,,,{32}1,2,3,4,5,6,7,8,{4}1b/5b,
{16}17,,,,2,6,3,5,4h[8:2],,,,3,,,,
{16}82,,,,7,3,6,4,5h[8:2],,,,6,,,,
{16}86,,,,1,7,2,8,3h[8:2],,,,4,,,,
{16}13,,,,8,2,7,1,6h[8:2],,,,5,,,,
{8}6-3[8:1],6,2-5[8:1],2,7-3[8:1],7,8-4[8:1],8,
{8}1-5[8:1],1,2-6[8:1],2,3-7[8:1],3,4-8[8:1],4,
{8}6,6,1,1,82,82,35,35,
{16}7,4,7,5,7,6,7,8,7,1,7,2,{24}7,8,1,2,3,4,
{1}5b-8[8:4]/8bz4[8:4],
{1}2bV48[8:4]/7bV51[8:4],
{1}1b<1[8:12]/8b>8[8:12],,
{16}3,8,3,8,3,8,3,8,3,8,3,8,3,8,3,8,3,8,3,8,3,8,3,8,3,8,3,8,3,8,3,8,4b,,,2b/6b,
