&title=シカ色デイズ
&artist=シカ部 [鹿乃子のこ (CV.潘めぐみ)、虎視虎子 (CV.藤田 咲)、虎視餡子 (CV.田辺留依)、馬車芽めめ (CV.和泉風花)]
&first=0.01
&des=香水火娃色デイズ
&demo_seek=2.264
&des_2=-
&des_3=-
&des_4=鳩ホルダー
&des_5=はっぴー
&lv_6=14+
&inote_6=(183){1},{4},,,{16}1/5,2/6,3/7,4/8,
{8}1-3[8:1]/5,3,1-6[8:1]/5,7,1-4[8:1]/5,3,1-7[8:1]/5,7,1-3[8:1]/5,3,1-5[8:1]/5,7,1/5,,{16}5,6,7,8,
{8}1-3[8:1]/5,3,1-6[8:1]/5,7,1-4[8:1]/5,3,1-7[8:1]/5,7,1-5[8:1]/5,3,1/5,7,{2}3^8[8:1]/7^4[8:1],
{8}8-6[8:1]/4,6,8-3[8:1]/4,2,8-5[8:1]/4,6,8-2[8:1]/4,2,8-6[8:1]/4,6,8-4[8:1]/4,2,4/8,,{16}4,3,2,1,
{8}8-6[8:1]/4,6,8-3[8:1]/4,2,8-5[8:1]/4,6,8-2[8:1]/4,2,8-6[8:1]/4,6,8-4[8:1]/4,2,4^7[8:1]/8^3[8:1],,{16}8/4,,,,
{8}2^7[8:1],,2,4p8[4:1],,8p4[4:1],,4-2[8:1]*-7[8:1],,,,1-4[8:1],6-2[8:1],1-5[8:1],6,1,
7^2[8:1],,7,5q1[4:1],,1q5[4:1],,5-2[8:1]*-7[8:1],,,,8-5[8:1],3-7[8:1],8-4[8:1],3,8,
3^6[8:1],,3,1q5[4:1],,5q1[4:1],,1-3[8:1]*-6[8:1],,,,2-6[8:1],7-3[8:1],2-5[8:1],7,2,
6^3[8:1],,6,8p4[4:1],,4p8[4:1],,8-3[8:1]*-6[8:1],,,,7-3[8:1],2-6[8:1],7-4[8:1],2,7,
2-4[8:1],1-5[8:1],2<5[4:1],1,2,,,,
7-5[8:1],8-4[8:1],7>4[8:1],8,7,,,,
2-4[8:1],1-5[8:1],2<5[4:1],1,2,,7-4[8:1],8-2[8:1],
7-3[8:1],8-4[8:1],7-5[8:1],8>4[8:1],7,8,,,
8-4[8:1],2-4[8:1],8<4[8:1],2,8,,,,
1-5[8:1],7-5[8:1],1>5[8:1],7,1,,,,
8-4[8:1],2-4[8:1],8<4[8:1],2,8,,2-5[8:1],1-7[8:1],
2-6[8:1],1-5[8:1],2-4[8:1],1-6[8:1],2-5[8:1],1-7[8:1],2,1,
4-7[8:1],5,2/4,3,{16}4q8[8:1]/8,7/3,6/2,5/1,{8}8/4,,
5-2[8:1]/3,4,5/7,6,{16}5p1[8:1]/1,6/2,7/3,8/4,{8}5/1,,
4-7[8:1]/6,5,2/4,3,{16}4q8[8:1]/8,7/3,6/2,5/1,8/4,,,,
3,4,1,5,2,6,3,7,8q4[8:1]/4q8[8:1],7/3,6/2,5/1,8/4,,,,
{8}8-3[8:1]/2,1,6/8,7,{16}8q4[8:1]/4,3/7,2/6,1/5,{8}4/8,,
1-6[8:1]/7,8,1/3,2,{16}1p5[8:1]/5,2/6,3/7,4/8,{8}1/5,,
8-3[8:1]/2,1,6/8,7,{16}8q4[8:1]/4,3/7,2/6,1/5,4/8,,,,
7,8,5,1,6,2,7,3,4q8[8:1]/8q4[8:1],3/7,2/6,1/5,4/8,,,,
2,1,2,1,2,,7,8,7,8,7,,1,8,1,,
6,5,6,5,6,,3,4,3,4,3,,5,4,5,,
4,5,4,5,4,,5,4,5,4,5,,3,6,3,,
7,2,7,2,7,,2,7,2,7,2,,8,1,8,,
2,1,2,1,2,,7,8,7,8,7,,1,8,1,8,
3,4,3,4,3,,6,5,6,5,6,,4,5,4,5,
3,6,3,6,3,,7,2,7,2,7,,1,8,1,8,
{4}1-7[8:1],1-5[8:1]*-6[8:1]/3,1-3[8:1],1-4[8:1]*-5[8:1]/7,1-7[8:1],1>5[8:1]*<5[8:1]/3,1,3/7,
8-2[8:1],8-3[8:1]*-4[8:1]/6,8-6[8:1],8-4[8:1]*-5[8:1]/2,8-2[8:1],8>4[8:1]*<4[8:1]/6,8,2/6,
1-3[8:1]*-4[8:1],1-5[8:1],1-6[8:1]*-7[8:1]/2,1-5[8:1],1-3[8:1]*-4[8:1]/8,1w5[8:1],1,3/7,
8-5[8:1]*-6[8:1],8-4[8:1],8-2[8:1]*-3[8:1]/7,8-4[8:1],8-5[8:1]*-6[8:1]/1,8w4[8:1],8,{16}1/5,2/6,3/7,4/8,
{4}5-3[8:1],5-1[8:1]*-2[8:1]/7,5-7[8:1],5-8[8:1]*-1[8:1]/3,5-3[8:1],5<1[8:1]*>1[8:1]/7,5,7/3,
4-6[8:1],4-7[8:1]*-8[8:1]/2,4-2[8:1],4-8[8:1]*-1[8:1]/6,4-6[8:1],4<8[8:1]*>8[8:1]/2,4,6/2,
5-7[8:1]*-8[8:1],5-1[8:1],5-2[8:1]*-3[8:1]/6,5-1[8:1],5-7[8:1]*-8[8:1]/4,5w1[8:1],5,7/3,
4-1[8:1]*-2[8:1],4-8[8:1],4-6[8:1]*-7[8:1]/3,4-8[8:1],4-1[8:1]*-2[8:1]/5,4w8[8:1],4,{16}5/1,6/2,7/3,8/4,
{16}
1,7,3,,6,,{24}4,5,3,{16}4,,8,,2,7,3,8,
{24}2,7,2,{16}7,,8,,{24}1,7,8,{16}7,,3,,7,2,6,3,
{24}45,6,4,{16}6,,7,,{24}4,5,3,{16}4,,7,,5,6,4,7,
{24}3,5,4,{16}5,,7,,{24}5,6,4,{16}5,,7,,6,7,8,1,
{24}27,8,1,{16}8,,8,,{24}2,7,3,{16}6,,6,,5,4,6,5,
{24}7,5,6,{16}4,,1,,{24}8,1,7,{16}2,,2,,6,3,5,4,
{24}35,6,4,{16}6,,7,,{24}1,8,2,{16}7,,6,,1,8,1,6,
{24}1,4,2,{16}5,,6,,3,,{24}5,4,5,{16}4,,4,5,6,7,
{8}8-6[8:1]/4,6,8-3[8:1]/4,2,8-5[8:1]/4,6,8-2[8:1]/4,2,8-6[8:1]/4,6,8-4[8:1]/4,2,8/4,,{16}4,3,2,1,
{8}8-6[8:1]/4,6,8-3[8:1]/4,2,8-5[8:1]/4,6,8-2[8:1]/4,2,8-4[8:1]/4,6,8/4,2,{2}6b^1[8:1]/2b^5[8:1],
