&title=祈 -我ら神祖と共に歩む者なり-
&artist=光吉猛修 VS 穴山大輔 VS Kai VS 水野健治 VS 大国奏音
&first=0
&des=CR
&lv_5=14
&inote_5=(219)
{16}Chf[1:4],,,,,,,,,,,,,,,,,,,,,,,,,,,,,,,,,,,,,,,,,,,,,,,,,,,,,,,,,,,,,,,,B7/B6/E7/B2/B3/E3,,,,,,,,,,1h[4:3]/8h[4:1],,,,,,,,7h[4:3],,,,,,,,3h[4:4],,,,,,,,5h[8:14],,,,,,,,,,,,,,,,4h[8:6],,,,,,,,,,,,3x/6x,2x/7x,1x/8x,,,,,,,,2h[4:3],,,,,,,,6h[4:3],,,,,,,,4h[4:3],,,,,,,,8h[4:3],,,,,,,,3h[4:4],,,,,,,,7h[4:2],,,,,,,,,,,,7pp4[4:1],,,,1,,1,,1h[4:1],,,,6-8[8:1],,,,2qq5[4:1],,,,8,,8,,8h[4:1],,,,3-1[8:1],,,,6-3<5[4:1],,,,2,,2,,2h[4:1],,,,5-8[8:1],,,,3-6>4[4:1],,,,7,,7,,7h[4:1],,,,4-1[8:1],,,,6h[2:1],,,,1,,2,,3h[2:1],,,,8,,7,,6h[2:1],,,,2,,3,,4h[2:1],,,,7,,6,,5h[2:1],,,,2,,,,3,,3,,8,,8,,1,,1,,7,,7,,2,,2q4b[8:6],,6,,6p4[8:4]*p4[2:1],,,,,,,,,,,,,,,,,,1-6[8:1],,1,,7-4[8:1],,7,,2>4[8:1],,,,2x/1x,8,7,6,5x<8[8:1],,,,2-6[8:1],,2,,7<5[8:1],,,,7x/8x,1,2,3,4x>1[8:1],,,,7-3[8:1],,7,,2>5[4:1],,,,2x/A5,D6,A6,D7,7xh[2:1],,,,1,,1,,2h[4:1],,,,8b,,,,8/6V84[2:1],,6/8h[8:5],,,,,,,,,,,,,,3V15[2:1]/1,,3/1h[8:5],,,,,,,,,,,,,,8x-3[8:1]*-5[8:1],,8x,,,,,,1x-4[8:1]*-6[8:1],,1x,,,,,,5xw1[8:1],,5x,,,,,,2-4[8:1]/7-5[8:1],,,,2b/7b,,,,1-5[8:1],6,1,6,1x,,,,8-4[8:1],3,8,3,8x,,,,1-3[8:1],,,,1/8-4[8:1],,,,1-5[8:1]/8,,,,1/8,,,,{12}6h[12:2],,5h[12:2],,7h[12:2],,4h[12:2],,8h[12:2],,3h[12:2],,{16}1b,,,,2-5[8:1],8,,,2b/1,,,,7-4[8:1],1,,,7bpp3[4:4]*qq4b[4:4]/8,,,,,,,,,,,,,,,,,,,,,,,,,26,,2-8[8:1]/6-4[8:1],,,,2bv3>2[4:1]/6bv7<6[4:1],,,,,,,,,,,,4-8[4:1],,4,,8>2[4:1],,8,,,,6-2[4:1],,6,,,,5-2[8:1]*-8[8:1],,,,5bp2[8:3],,,,,,,,,,,,8-5[4:1],,8,,5-7[4:1],,5,,,,2-7[8:1],,2,,,,4-1[8:1]*-7[8:1],,,,4bq7[8:3],,,,,,,,,,,,1-4[4:1],,1,,4-2[4:1],,4,,,,7-2[4:1],,7,,,,5-8[8:1]*-2[8:1],,,,5b>1pp5b[8:7]*<1qq5b[8:7],,,,,,,,,,,,,,,,,,,,,,,,,,37,,3-1[8:1]/7-5[8:1],,,,3bv4>3[4:1]/7bv8<7[4:1],,,,,,,,,,,,3h[8:1],,4h[8:1],,3h[8:1],,4-8[8:1],,,,2-6[8:1],,2,,,,7-3[8:1],,,,5bqq1[8:3],,,,,,,,,,,,6h[8:1],,5h[8:1],,6h[8:1],,5-1[8:1],,,,7-3[8:1],,7,,,,2-6[8:1],,,,4bpp8[8:3],,,,,,,,,,,,2h[8:1],,1h[8:1],,2h[8:1],,1-5[8:1],,,,4-8[8:1],,4,,,,7-3[8:1],,,,2bpp6[8:3],,,,,,,,,,,,,,8w4[8:1],,8,,,,,,,,{32}7x,6,5,4,3x,2,1,8,7x,6,5,4,3x,2,1,8,7bx/3bx,{16},,,,,,,1-5[8:1],,5-3[8:1],,1,,6,,7-3[8:1],,,,2,,1,,8<5[8:1],,,,1,,2,,3,,,,1,2,3,4,1,8,7,6,{32}2,3,4,5,6,7,8,1,2b,,,,,,,,{16}1,7,1,7,2,6,2,6,3>5[2:1],5,3,5,3b,,,,,,,,1,,2,,2h[4:1],,,,8,7,6,5,8,1,2,3,7,6,5,4,1,2,3,4-8b[8:1],,,,,,6b,,,,,3,4,2,,6,5,7,,3,6,4,5,3,6,4,5,3,,3-8[8:1]*-6[8:1],,,,3b,,,,,,7,,7-3[8:1],,,,7/1-5[8:1],,,,1/6-4-8[4:1],,,,,,1,,2,,,,3-8[8:1],,,,7-5[8:1],,,,2,,2h[4:1],,,,5,6,7,8,5,4,3,2,6,7,8,1,4,3,2,1,5,,5-2[8:1]*-8[8:1],,,,5b,,,,36,,3-8[8:1]/6,,,,3/5-1[8:1],,,,5/2-6[8:1],,,,2/7-4[8:1],,,,7/1-4[8:1],,1,,,,8-5[8:1],,,,8b/2b,,,,{32}A8,E1,B1,B2,E3,A3,,,A7,E7,B6,B5,E5,A4,,,A2,E3,B3,B4,E5,A5,,,A1,E1,B8,B7,E7,A6,,,6x,5x,4x,3x,2x,1x,8x,7x,6x,5x,4x,3xw7[8:1],,,,,,,,{16}3b,,,,1-5[8:1],,,,1/7-4[8:1],,7,,7/2-4[8:1],,,,2/6-1[8:1],,,,6/3-7[8:1],,,,3/5-8[8:1],,,,5/4-1[8:1],,,,4/7-5[8:1],,7,,7/2-4[8:1],,,,2/8-6[8:1],,,,8-4[8:1],,,,8b,,,,1-7[8:1]/7-5[8:1],,,,7/1-5[8:1],,,,1b-3[8:1],,,,1-7[8:1],,,,1-4[8:1]/6-4[8:1],,,,16,,,,2b-6[8:1]/7b,,,,2/8-4[8:1],,8,,8/1-5[8:1],,,,1/6-8[8:1],,,,6/3-1[8:1],,,,3/7pp5[4:3],,,,,,,,B2/E3,,,,B3/E4,,,,4h[4:1],,,,,,,,2qq4[4:3],,,,B7/E7,,,,B6/E6,,,,6h[4:1],,,,,,,,6pp4[4:2],,,,E1/B1,,,,E2/B2,,,,3qq5[4:2],,,,B8/E8,,,,B7/E7,,,,6h[4:1],,,,,,1h[4:1]/8h[4:1],,,,,,1h[4:1]/2h[4:1],,,,,,2h[4:1]/3h[4:1],,,,,,3/4-8[8:1],,,,2,,2h[4:1],,,,,,2/7v4[8:1],,,,7/1v4[8:1],,,,1/8V64[8:1],,,,3bh[4:1]/8b,,,,,,6,,6-8[8:1],,,,6/5-1[8:1],,,,5/7-2[8:1],,,,7/3-8[8:1],,,,3b/5bh[4:1],,,,,,3,,3,,1,,1<6[8:1],,,,1>4[8:1],,,,1w5b[8:1],,,,1b,,,,,,,,8,,8h[16:3],,,,{32}1x/7,2/6x,3x/5,4bpp8[4:1]*qq8[4:1],{16},,,,,,,,,,1-3[8:1],,7-4[8:1],,1,,7-3[8:1],,,,2,,2v5[8:1],,,,2/8-2[8:1]*-6[8:1],,,,8bs4[8:3]*z4[8:3],,,,,,,,,,,,6-4[8:1],,1-4[8:1],,6,,1-6[8:1],,,,7,,7v4[8:1],,,,7/1-3[8:1]*-7[8:1],,,,1bs5[8:2]*z5[8:2],,,,,,,,,,{32}1x,2,3,,8x,7,6,,2x,3,4,,7x,6,5,,1x-5[8:1],2,3,,{16},,7,,7v4[8:1],,,,7/2-6[8:1],,,,2/8bs4[8:2]*z4[8:2],,,,,,,,,,15,,26,,37,,4h[8:3]/8h[8:3],,,,,,,,,,1,,1h[16:3],,,,{32}2x/8,3/7x,4x/6,5bpp1[4:1]*qq1[4:1],{16},,,,,,,,,,2-5[8:1],,6-1[8:1],,2-7[8:1],,6,,,,4,,4-8[8:1],,,,1-5[4:1]*s5[4:1],,,,1b,,,,,,,,,,12,,2,,87,,7h[4:3],,,,{48}A1,D2,A2,D3,,,,,,,,,A6,D6,A5,D5,,,,,,,,,{32}A1,A2,A3,A4,A5,A6,A7,A8,A1/Cf,,,,,,,,{16},,,,,,1-5-3[4:1],,5,,1,,7,,7-3[8:1],,,,2,,2-7[8:1],,,,4pp8[8:3],,,,3b-1[8:1],,,,,,,,,,18,,18,,18,,18,,{12}2,4,3,7,5,6,{16}4x,5x,4x,5x,4x,5x,4x,5x,4h[16:1],,,,,,,,,,,,,,,,6h[16:1],,,,,,,,,,,,,,,,2h[16:1],,,,,,,,,,,,,,,,8h[16:1],,,,,,,,,,,,,,,,3h[1:1]/5,,,,5,,,,5,,,,5,,,,6h[1:1],,,,2,,,,2,,,,2,,,,1h[1:1],,,,7,,,,7,,,,7,,,,8bh,,,,,,,,7h[4:1],,,,6h[4:1],,,,5h[4:1],,,,,,,,5/E2,,5,,6/B2,,6,,7h/B3,,,8h,E4,,5h,,E2,,6,,6h[4:1]/B2,,,,,,,,4/E8,,4,,3/B7,,3,,2h/B6,,,1h,E6,,4h,,E8,,3,,3h[4:1]/B7,,,,,,,,6,,6,,4,,4,,7h[16:3],,,3h[16:3],,,8h[16:4],,,,2,,2h[4:1],,,,,,,,18,,1>8[8:7]/8,,18,,18,,,,,,,,,,,,,,,,,,2x-5[8:1],1x,2x,1x,2x,,,,7x-4[8:1],8x,7x,8x,7x,,,,2x,3x,4x,5x,8x,7x,6x,5x,{32}1x,2x,3x,4x,5x,6x,7x,8x,1xb,,{16},,,2x,4x,2x,4x,2x,4x,2x,4x,3x,5x,3x,5x,3x,5x,3x,5x,4x,6x,4x,6x,8x,7x,8x,7x,4x,5x,4x,5x,2x,1x,2x,1x,2xpp5[1:1],,,,8,,8h[8:1],,,,,,7,,,,7,,,,7,,,,6pp1b[1:1],,,,2,,2h[8:1],,,,,,3,,,,3,,,,3,,,,4-7-2-5-1-4b[2:2],,,,,,,,,,,,,,,,,,,,,,,,,8h[8:6],,,,,,1h[8:3],,,,,,2b/7b,36,45,,,,,,,,,18,,1h[4:1]/8h[4:1],,,,{32}E1,B1/B8,Cf,B4/B5,E5,,,,{16},,,,,,,,2-5[8:1],,2,,6-1[8:1],,6,,,,3qq8[4:1],,3,,,,6,,,,5b,,,,,,45,,45,,36,,36,,27,,27,,1,8,1,8,1,8,1,8,1x,,1xw5[8:1],,,,1b,,,,,,,,,,2v5V38[8:3],,5,,2,,6,,6-4[8:1],,,,2,,2-8[8:1],,,,2-4[8:1],,,,2b-6-2[4:1],,,,,,,,,,87,,16,,25,,3z7[16:3]/4s8[16:3],,,,,,,,,,26,,2-5[8:1]/6-1[8:1],,,,2b/6b,,,,,,,,1-4[8:1],,5-8[8:1],,1,,5,,2h[4:1],,,,1,8,7,6,1,2,3,4,{32}8,7,6,5,4,3,2,1,8b,,,,,,,,,{16}2,1,3,,7,8,6,,3,4,2,,6,5,7,,2,1,4,5,8,7,4,5,{32}B4,B3,B2,B1,B8,B7,B6,B5,B4/Cf,,,,,,,,{16},,,,8<5[8:1],,,,8>3[8:1]/3h[8:1],,,,8<5[8:1]/5h[8:1],,,,8>3[8:1]/3h[8:1],,,,8w4[8:1]/5h[8:1],,,,8b,,,,{32}8,1,2,,7,6,5,,2,3,4,,8,7,6,,1x,2,3,,8x,7,6,,2x,3,4,,7x,6,5,,,,,,,,{12}3,4,3,6,5,6,2,1,2,7,8,7,3,4,2,6,5,7,3,1,2,6,8,7,3,4,3,6,5,6,{16},,1x,2,3,4,1x,8,7,6,2x,3,4,5,8x,7,6,5,1x,2,3,4,5,6,7,8,5x,4,3,2,1,8,7,6,2,3,4,6,7,8bs4[4:3]*z4[4:3],,,,,,,,,,,,,,,,,,,,,,,,{12}2,4,2,7,5,7h[8:1],,3,3,4,3,,,6,8,6,3,1,3h[8:1],,6,6,5,6,,,{48}E1,B8,B7,E7,,,,,,E2,C,E6,,,,,,,E3,B3,B4,E5,,,,,,E1,B1,B2,E3,,,,,,E8,C,E4,,,,,,,E7,B6,B5,E5,,,,,,E1,B8,B7,E7,,,,,,E2,C,E6,,,,,,,E3,B3,B4,E5,,,,,,E1,B1,B2,E3,,,,,,E8,C,E4,,,,,,,E7,B6,B5,E5,,,,,,,,,{16}4xb>5b[4:3],,,,,,,,,,,,,,,,,,,,{64}E1,B1/B8,B2/B7,Cf,B3/B6,B4/B5,E5,4xb>5b[32:84]/5xb<4b[8:21],,,,,,,,,,,,,,,,,,,,,,,,,,
