&title=Renegade
&artist=sky_delta
&first=0
&des=Chieko
&des_5=Chieko
&lv_5=14
&inote_5=(186){4},,,,
{384},,{8},,,,,,,,6/3<6[8:3],
,,,,7,,5/8qq8[2:1],
,,,,,2,3,1/4-8[8:3],
,,,,,7,,6<3[8:5]/1qq4[8:5],
,,,,,,,,3/6>3[8:3],
,,,,2,,4/1pp1[2:1],
,,,7,6,5,4pp7[4:5],8bpp3[8:9],
,,,,,,,,,,,,{2}6h[2:1],
{4}4b,3/5,{8}5,2h[8:1],6,3h[8:1],
7,5,{4}4-2[8:1],{8}4/7,6,5,4,
2,2,{4}3/4-6[8:1],{8}4/2,3,4,6h[8:1],
5,3h[8:1],4,7h[8:1],5,2h[8:1],{4}4-6[8:1],
6/4,8-2[8:1],8/2,4-7[8:1],
6/4,8-3[8:1],{8}8/2,4,5,6,
7/8,5,4,1/2V46[4:1],,,7,1-6[8:1],
,2-5[8:1],,7,{16}8,1,2,3,4,5,6,7,
{8}8b/5bqq6[4:5],,,,,,,7>2[8:3],
,,,,,,{4}5qq2[8:9],
8h[8:1],8h[8:1],7h[8:1],7h[8:1],
6h[8:1],{8}5h[8:1],{16}2,2,{8}4,3,6pp1[8:9],4,
{4}5h[8:1],5h[8:1],4h[8:1],4h[8:1],
3h[8:1],{8}3h[8:1],{16}8,8,{8}2,7,1,6,
2/5,2,2/6,2,4/7,7,7/3,7,
2/1,3,4/5,6,8/7,6,5/4,3,
{16}2,1,2,1,3,8,3,8,4,7,4,7,5,6,5,6,
{32}4,3,2,1,8,7,6-2[16:5],5,4,3,2,1,{16}8,6h[16:5],,,,,,,,,{4}1b/8b-4[8:1],
{8}4-2[8:1],2v7[24:5]*v5[24:5],,,,,4-1[8:1],
6,4,5,8>3[8:1],7,8,6,
{4}4b/5b-1[8:1],{8}1-3[8:1],3v8[24:5]*v6[24:5],,,,,5/1,
2-8[8:1],4,2-4[8:1],5,2,{16}7,7,{8}5,
6/4,2-4[8:1],4-6[8:1],7,{4}1h[4:1],{8}5,8-4[8:1]/3-8[8:1],
,8/3V57[4:1],,1,{4}2-6[8:1]*-5[8:1],2,
{8}4b,{16}3,4,{8}2,{16}6,5,{8}7,4/8-5[8:1],3,2b-7[8:1],
,6b-3[8:1],,1b-4[8:1],,5b,{4}6V42[16:7]*V82[16:7],
6b,{8},,,,3,4b/2b,
,1h[8:1],7h[8:1],3-5[8:1],8,3,7,3-7[8:1],
6,3,{4}5-1[8:1],5/2,{16}4,8,5,7,
{8}2h[8:1],{16}5,3,{8}7h[8:1],{16}4,6,{8}3h[8:1],{16}5,4,{8}6h[8:1],{16}4,5,
{8}3h[8:1],7-5[8:1],5-3[8:1],2,{4}8h[4:1],{8}4,1/6-2[8:1],
3-5[8:1],6,3,8,{4}8-4[8:1],{8}2-5[8:1],2,
6,7,8-4[8:1],8,3,2,1s5[4:3],1,
7b,,,,,8,8,8,
{4}2b>5[8:1],5/2,7<4[8:1],{8}7/4,3,
{4}2-6[8:1],5/2,8<4[4:1],{16}4/8,{32},,,,3,2,
{8}1pp2[4:1],,,5pp6[4:1],,,{4}1h[4:1],
{8}5-3[8:1],5,2-6[8:1],2,1,8,5,4,
{4}7b/2b-6[8:1],2/5,8-4[8:1],{8}3/8,2,
{4}1>4[8:1],{8}5/1,6h[8:1],5,3h[8:1],4,2/5,
6b,5h[8:1],4h[8:1],3h[8:1],{4}2<7[8:1],7/2,
{8}6,2/5-8[8:1],,4-1[8:1],,7,6,5,
{4}4b/8b-3[8:1]*-5[8:1],8b,2>5[8:1],{8}2/5,7,
{4}8-4[8:1],8/3,1>5[4:1],{16}1/5,{32},,,,6,7,
8qq7[4:1],,,,,,,,,,,4qq3[4:1],,,,,,,,,,,,,{4}8h[4:1],
{8}4,{16}6,5,{8}7,{16}2,4,{8}3,{16}6,5,8,1,2,3,
{4}4b<7[8:1],2/4,4-1[8:1],7/4,
{8}8/5-8[8:1],1,{4}2,{8}1/3-8[8:1],8,7,6,
{16}1,7,1,7,2,8,2,8,3,1,4,1,5,1,{24}4,3,2,
8,7,6,3,2,1,7,6,5,2,{48},{16}1,8,7,6,5,8,7,6,5,
{4}4b/1b,{8}3h[4:1],5h[4:1],,,4h[4:1],6h[4:1],
,,5,7v6[4:1],,,,,{4}5/3,
{8}5h[4:1],3h[4:1],,,4h[4:1],2h[4:1],
,,3-7[16:3],1p8[16:7],,,,,{4}5b,
{8}1h[4:1],7h[4:1],,,2h[4:1],8h[4:1],
,,3V52[16:5],1-6[16:3],{16},,,,,,,,6h[8:1]/1h[8:1],
,,5h[8:1]/3h[8:1],,,{8}7h[8:1]/4h[8:1],{16},5,7,4,6h[8:1],,,5h[8:1]/3h[8:1],
,,{8}4h[8:1]/2h[8:1],{16},6h[8:1]/8h[8:1],,,{8}1-7[8:1],2/7V53[4:1],,,{1}1bp8[8:13],
{8},,,,,,,4qq5[4:7],
,,,,,,,,,,,,,,,,{1}7qq4[8:13],
,2pp5[1:1]*pp1[1:1],
{2},4-6[8:1]/8-2[8:1],
{4}1b/8b<3[1:1],4,3,2,
1,{8}8,8h[4:1],,5,,7,
{4}8b/1b>6[4:3],5,6,7,
{16}8h[8:1],,,5h[8:1],,,{8}6h[8:1],4,8,2,6,
{16}5/1,,,3,{8}4h[8:1],2,{16}5/1,,,7,{8}8h[8:1],6,
1/5,5/1,6/2,6/2,7/3,7/3,8/4,1/5,
{16}8,7,6,5,4,3,8/2,7,6,5,4,3,2/8-4[12:7],7,{8}6,
{6}1h,3h,3h,2h,1h,1h,
{4}8b/2b-5[8:1],{8}2/4,{32}6>3[8:1],7,8,1,,,,,{8}7-3[8:1],,2<7[8:1],
,4,{32},,,,4-1[8:1],5,6,7,{8}8-5[8:1],4,{4}8b,
8/7-4[8:1],{8}7/5,{32}3<6[8:1],2,1,8,,,,,{8}2-6[8:1],,7>2[8:1],
,5,{32},,,,5<8[8:1],4,3,2,{8}1,5,{24}1,2,3,4,5,6,
{4}7-4[8:1],{8}7/5,{32}3-7[8:1],2,1,8,,,,,{8}2-6[8:1],,8>3[8:1],
,5,{32},,,,5V71[8:1],4,3,2,{8}1V35[8:1],5,{24},,,,,,1,
2,3,4,5,6,7,8,1,6/2,5,4,3qq4[8:3],2,1,8,7,6,{4}3/5h[4:1],
{8},7h[8:1],5h[8:1],4h[8:1],2h[8:1],7,6h[8:1],5,
{4}8b/7b-4[8:1],{8}7/5,{32}3,2,1,8,,,,,1-6[8:1]/5-2[8:1],2/6,3/7,4/8,,,,,{8}1/5,
,5/8>3[8:1],{32},,,,4,5,6,7-4[8:1]*-3[8:1],,,,,,,,,,,,,,,,,{4}8/2-5[8:1],
{8}2/4,{32}6,7,8,1,,,,,4/8-3[8:1],7/3,6/2,5/1,,,,,{8}4/8,
{12}7h,7h,4h,6h,6h,2h,5h,5h,8h,{96}2,,,3,,,{32}4,5,6,7,8,1,
{4}2b>5[8:1],{8}2/1,{32}1,8,7,6h[32:9],,,,,7<4[8:1],8,1,2,,,,,{8}7,
8>5[4:1],8,6,7,1v6[8:1],1,3,2,
{16}8,6,5,6,1,5,4,5,2,4,3,4,2,3,2,3,
{24}1,8,7,4,5,6,1,2,3,7,6,5,8,1,2,3,4,5,{32}8,7,6,5,4,3,2,1,
{4}8b/4b,{16}6,5h[16:1],6,5h[16:1],{8}7,1/8,,5/6pp5[8:3],
,,,3,,4/2,3,4,
5/6h[4:1],7,8,1,4/3h[4:1],2,1,8,
{16}7,5,6,3,4,2,7,8,6,1,5,2,{32}4pp4[2:5],3,2,1,8,7,6,5,
{1}4b/3bqq4[4:9],
{4},,,,,,,4/5h[8:5],
{8},,,3h[4:1],4h[4:1],,,2/1<6[2:1],
,,,,,,2,5/1>4[2:1],
,,,7,,1-5[8:1],,1b/5bs1[8:15]*z1[8:15],
E
