&title=星降るココロ (feat. 初音ミク)
&artist=MIMI
&first=0
&des=momo
&lv_5=13
&inote_5=(128)
{12}
,,,,,,
,,,1,,,
{12}
1h[12:2],,4,3,,,
3h[12:2],,4,3,,,
{12}
2h[12:2],,4,3,,,
5h[12:2],,3,4,,,
{12}
6h[12:2],,5,6,,,
8h[12:2],,5,6,,,
{12}
7h[12:2],,5,6,,,
4h[12:2],,6,5,,,
{12}
2>4[12:1],,5,5,,,
3-5[12:1],,6,6,,,
{12}
2>4[12:1],,5,5,,,
1q6[8:1],,7,7,,,
{12}
7<5[12:1],,,3,,,
6-4[12:1],,3,3,,,
{12}
43,,,54,,,
5>3[12:1]/6,,6,6,,,
{12}
6,5,4,3,5,4,
6,5,4,3/6,,,
{12}
3,4,5,6,4,5,
3,4,5,6/3,,,
{12}
2h[12:2],,4,3,,,
7h[12:2],,5,6,,,
{12}
1h[12:2]/8h[12:2],,,1h[12:2]/8h[12:2],,,
4q1[12:1]/5p8[12:1],,,,,,
{12}
2-5[12:1],,6,6,,8,
8-4[12:1]/3-1[12:1],,,,,7,
{12}
7-4[12:1],,3,3,,1,
1-5[12:1]/6-8[12:1],,,,,3,
{12}
3>8[8:1],,,1-5[8:1],,,
4<7[8:1],,,8V64[24:5],,,
{12}
2,,,1-5[24:4],,,
7,,,8<4[24:5],,4,
{12}
3,,3,3V51[24:6],,6,
6,,7,7qq8[24:6],,2,
{12}
2,,3,3>8[24:3],,6,
6,,,5,,3,
{12}
3>6[12:2],,5,5s1[24:6],,,
4,,,5-2[12:1],,,
{12}
7-4[12:1],,,1-6[12:1],,,
3-8[12:1],,,5-2[12:1],,,
{12}
1>8[12:30],,,,,,
1,,,,,,
{12}
2,,,,,,
3,,,,,,
{12}
4,,,,,,
5,,,,,,
{12}
5/6h[12:2],,,6/7h[12:2],,,
7/8h[12:2],,,1-5[8:1],,,
{12}
2,,3,3h[12:3],,4,
4h[12:3],,5,5h[12:3],,6,
{12}
6h[12:3],,7,7h[12:3],,8,
8h[12:3],,1,1-5[8:1],,,
{12}
8,,7,7h[12:3],,6,
6h[12:3],,5,5h[12:2],,4,
{12}
5/4h[12:2],,,4/3h[12:2],,,
3/2h[12:2],,1,1-5[8:1],,,
{12}
2,,3,3h[12:3],,4,
4h[12:3],,5,5h[12:2],,6,
{12}
5/6h[12:2],,,6/7h[12:2],,,
7/8h[12:2],,1,1>4[24:3],,5,
{12}
6,,6,6,5,4,
6>3[8:1]/3,,2,1,,2,
{12}
4h[12:2],3,3,5h[12:2],4,4,
5p8[8:1]/4q1[8:1],,,,,,
{12}
3-8[12:1],,6,6,,4,
4-8[12:1]/2-5[12:1],,,,,7,
{12}
7-4[12:1],,2,2,,8,
8-3[12:1]/4-7[12:1],,,,,4,
{12}
4>1[8:1],,,2-6[8:1],,,
5<8[8:1],,,3qq2[24:5],,,
{12}
5pp6[24:5],,,4w8[8:1],,,
4,,,2>5[8:1],,5,
{12}
6,,6,6V84[24:6],,3,
3,,2,2pp1[24:6],,7,
{12}
7,,6,6<1[24:4],,4,
4,,,4,,3,
{12}
3<6[8:1],,7,7,,8,
8<3[24:5],,,2,,1,
{12}
1-4[12:1],,,8-5[12:1],,,
7-2[12:1],,,6-3[12:1],,,
{12}
5bqq5[12:5]*pp5[12:5],,,,,,
,,,1>5[12:3],,,
{12}
5<1[12:3],,,1>5[12:3],,,
5<1[12:3],,,1>5[12:3],,,
{12}
5<5[12:6],,,,,,
,,,7<5[12:1],,,
{12}
8p4[8:1],,,1q5[8:1],,,
2>4[12:1],,,6,,,
{12}
7/5>2[8:1],,8,8qq1[24:5],,,
2<4[12:3],,3,3,,,
{12}
2qq1[24:4],,7,7>5[12:3],,6,
6,,,8<5[12:1],,4,
{12}
4qq5[24:5],,,6>8[12:3],,7,
7,,,6,,8,
{12}
8>3[12:1],,,7-3[12:1],,,
6-2[12:1],,,5w1[12:1],,,
||
Break?
{12}
5,,,,,,
4h[12:3]/5h[12:2],,,,,,
{12}
3h[12:3]/4h[12:2],,,,,,
2h[12:3]/3h[12:2],,,,,,
{12}
1h[12:3]/2z6[12:3],,,,,,
5h[12:2],,4,4h[12:3],,,
{12}
3h[12:3],,2,2h[12:3],,8,
8h[12:3],,6,6h[12:3],,4,
{12}
4pp1[12:18]*pp5[24:21],,,,,,
,,,,,,
{12}
,,,,,,
,,,,,,
{12}
,,,,,,
,,,,,,
E
&inote_7=(128)
{12}
,,,,,,
,,,1,,,
{12}
1h[12:2],,4,3,,,
3h[12:2],,4,3,,,
{12}
2h[12:2],,4,3,,,
5h[12:2],,3,4,,,
{12}
6h[12:2],,5,6,,,
8h[12:2],,5,6,,,
{12}
7h[12:2],,5,6,,,
4h[12:2],,6,5,,,
{12}
2>4[12:1],,5,6,,,
3-5[12:1],,6,7,,,
{12}
2>4[12:1],,5,6,,,
1q6[8:1],,7,8,,,
{12}
7<5[12:1],,,3,,,
6-4[12:1],,3,2,,,
{12}
43,,,54,,,
5>3[12:1]/6,,6,6,,,
{12}
6,5,4,3,5,4,
6,5,4,3/6,,,
{12}
3,4,5,6,4,5,
3,4,5,6/3,,,
{12}
2h[12:2],,4,3,,,
7h[12:2],,5,6,,,
{12}
1h[12:2]/8h[12:2],,,1h[12:2]/8h[12:2],,,
4q1[12:1]/5p8[12:1],,3/6,,,,
{12}
2-5[12:1],,6,6,7,8,
1-5[12:1]/4-2[12:1],,,,,7,
{12}
7-4[12:1],,3,3,2,1,
8-4[12:1]/5-7[12:1],,,,,3,
{12}
3>8[8:1],,,1-5[12:1],,,
4<7[8:1],,8,8V64[12:2],,2,
{12}
2,,1,1V35[12:2],,7,
8,,,7<4[8:1],,3,
{12}
2,,2,3V58[24:4],,6,
6,,7,7V14[24:4],,2,
{12}
2,,3,3>8[8:1],,5,
6,,,6,,3,
{12}
3>6[12:2],,5,5s1[12:2],,,
4,,,5-2[12:1],,7,
{12}
7-4[12:1],,1,1-6[12:1],,3,
3-8[12:1],,,5-2[12:1],,,
{12}
1b>8[12:30],,,,,,
1,,,,,,
{12}
2,,,,,,
3,,,,,,
{12}
4,,,,,,
5,,,,,,
{12}
5/6h[12:2],,,6/7h[12:2],,,
7/8h[12:2],,,1-5[8:1],,,
{12}
2,,3,3h[12:3],,4,
4h[12:3],,5,5h[12:3],,6,
{12}
6h[12:3],,7,7h[12:3],,8,
8h[12:3],,1,1-5[8:1],,,
{12}
8,,7,7h[12:3],,6,
6h[12:3],,5,5h[12:2],,4,
{12}
5/4h[12:2],,,4/3h[12:2],,,
3/2h[12:2],,1,1-5[8:1],,,
{12}
2,,3,3h[12:3],,4,
4h[12:3],,5,5h[12:2],,6,
{12}
5/6h[12:2],,,6/7h[12:2],,,
7/8h[12:2],,1,1>4[8:1],,5,
{12}
6,,6,6,5,4,
6V85[12:2]/3,,2,1,,1,
{12}
4/1,2,3,4/5,6,7,
8q5[12:1]/1p4[12:1],,,,,,
{12}
3-8[12:1],,6,6,5,4,
3-6[12:1]/1-4[12:1],,,,,7,
{12}
7-4[12:1],,2,2,1,8,
7-2[12:1]/3-6[12:1],,,,,4,
{12}
4>1[8:1],,,2-6[8:1],,,
5<8[8:1],,3,3qq2[8:1],,5,
{12}
5pp6[8:1],,4,4w8[12:1],,4,
4,,,7/3>8[12:1],,7,
{12}
6,,6-8[12:1],8-4[12:1],,1,
2,,2-4[12:1],4-7[12:1],,8,
{12}
1,,1<6[12:1],6-2[12:1],,4,
5,,,54,,6,
{12}
8V63[12:2],,3,3,,1,
1w5[12:1],,,1,,2,
{12}
2-6[12:1],,3,3-7[12:1],,4,
4-8[12:1],,,5-1[12:1],,5,
{12}
5bqq5[12:5]*pp5[12:5],,,,,,
,,,1>5[12:3],,,
{12}
5<1[12:3],,,1>5[12:3],,5,
5<1[12:3],,,1>5[12:3],,5,
{12}
5<5[12:6],,,,,,
,,,7<5[12:1],,,
{12}
7/8p4[12:1],,,8/1q5[12:1],,,
1/2>4[12:1],,,2/4,,,
{12}
7/3-5[12:1],,8,3/7-4[12:1],,1,
7/2-5[12:1],,7,2/8-4[12:1],,2,
{12}
8/1-5[12:1],,6,1/7-4[12:1],,3,
7/2-5[12:1],,,2/6-1[12:1],,4,
{12}
6/3-8[12:1],,6,3/7-4[12:1],,1,
7/2-5[12:1],,,7/2,,8,
{12}
8q4[12:1],,5,5-8[12:1],,2,
2-5[12:1],,7,7-2[12:1],,4,
{12}
4-7[12:1],,,,,,
,,,,,,
{12}
1,,,,,,
,,,,,,
{12}
1,,,,,,
,,,,,,
{12}
1,,,,,,
,,,,,,
{12}
1,,,,,,
,,,,,,
{12}
1,,,,,,
,,,,,,
{12}
1,,,,,,
,,,,,,
E
