&title=开心往前飞
&artist=VIVI
&first=-0.12
&lv_5=13
&des_=ANYA
&des_5=ANYA
&inote_5=
(146){4},1>4[4:1],,8<5[4:1],
{8},,1,1h[4:1],,8h[4:1],,2,
3,4q5[8:3],,,,,7,6,
5,4w8[8:3],,,,,,,{4}C,
7xp2[4:1]/6x>3[4:1],{8},,,,,6-3[4:1],
,,{2}3s7[4:1],
{32},,,,,1,,,,1-5[8:1],,,,,,,,1w5[16:3],,,,,,,,,,,,,,,,,,,,3xh[4:1],
,,,,,,,4,,,,1x/2x,,,,3,,,,4/5,,,,6,,,,7x/8x,
,,,6,,,,5bx/4bx,,,,6bx/3bx,,,,7bxpp4b[1:1]/2bxqq5b[1:1],{1},{4},,{16}5-7[8:1],
,5-3[8:1],,5-1[8:1],,5<3[2:1],,,,,,,,,,,,8h[2:1],
,,,E5,,C,,E1,,,,8/1,
,8/1,,8/1,,7h[2:1]/2>4[8:1],,,,2-5[8:1],,,,2,,,,6,
,5,,5pp6[16:3]*qq4[16:3],,,,5V71[4:1]*V31[4:1],,,,,,,,,,7-3[16:3],
,1-5[16:3],,,,,,,,4x,,4x-8b[8:1],
,,,2,{32},,,,,,,2/1,,,,3,,,,2/1,,,,4,,,,1/8,
,,,4,,,,8/7,,,,5,,,,6,,,,7-5[8:1],,,,3x,,,,7-1[8:1],,,,3x,
,,,7-5s1[2:1],,,,Cf,{4},,,{8}5/6,
5/4pp4qq3b[2:1],4/3,2,,1,,8,
{2}8-4-8[2:1],{8}5x-1-5[2:1],5x,,,,,,1b>1[1:1],
,,,,,,1,
1b>7[1:1],,,,,,,,7b>6[8:11],
,,,,,,,6b,
,,{4}6b>2b[4:1],
{8},,,8/7x,{4}6-1b[8:1]/1x-5b[8:1],6bxpp8b[16:3]/1bpp3b[16:3],
{32},,,,,,,,,,,,,1/2x,,,,3-8b[8:1]/8x-4b[8:1],,,,,,,,8b/3bxw7b[16:3],,,,,,,,,,,,,,,,,,,,6h[4:1],
,,,5,,,,3h[8:1],,,,4,,,,8/7,,,,2b/1,
,,,4b/3,,,,6/5b,,,,8b/7b,,,,,,,,,,,,,,,,,{16}5bw1[8:1],
,,,5b/Cf/B7f/B3f,,,,2x/8x-5[8:1],,7,,8/1pp3[8:1],,2,,5/1,
,6pp8[8:1],,7,,6/2>5[8:1],,3,,2/1<6[8:1],,8,,,,4-2[8:1],
,3,,4/8<5[8:1],,8,,1,,,,8>3[4:1],,,,3<8[4:1],
,5,,8>4[4:1],,Cf,,,,,,5-7[8:1],,5-3[8:1],,5-8[8:1],
,5-2[8:1],,5,,5bw1[4:1],{4},,,{16},{32},7-5<1[4:1]/3-5>1[4:1],
,,,7/3,,,,7/3,,,,,,,,,,,,,,,,8,
,,,8<2[2:1]*p2[2:1],{4},,,{16},{32},B3/E3,
,,,B4/E4,,,,B5/E6,,,,7x>2b[4:1],,,,,,,,,,,,,,,,,,,,8-6[8:1]/1-3[8:1],
,,,,,,,,,,,,,,,,{8}5/4-2[8:1],3,4/6p3[4:1],7,
6/2,1,8,8>3[8:1],1,8/6pp7[8:1],7,6/4qq3[8:1],
3,4-1b[8:1]/5-8-6v7b[8:3],6,{64}5x/4x,Cf,{4},{16},{32},{4}8x>3p7[2:1],
{8}5x,6x,7x,8bxw4b[4:1],,,,,6/2,
7/3,8/4,5qq3<6[8:3]/1qq7>2[8:3],,,,,,1,
3-8b[8:1],6,{2}6-1b[8:1],
{32},4,,,,4w8b[8:1],,,,,,,,Cf/B2/B6,,,,,,,,,,,,6,,,,7/8,,,,5,
,,,7/8,,,,5,,,,8/1,,,,5,,,,8/1,,,,1/2,,,,1h[4:1]/8h[4:1],,,,,,,,,,,,5/6,
,,,5h[2:1]/4h[2:1],,,,,,,,,,,,,,,,,,,,7/5x,
,,,4x/2,,,,7x/8x,,,,1x/2xh[32:27],,,,,,,,,,,,5x,,,,,,,,3x,
,,,,,,4,5,{16}6,
E
&lv_6=13+
&des_6=开心地超人。
&inote_6=
(146){4},5/6h[8:1],B8/E8/B7,3h[8:1]/4h[16:1],
B1/E2/B2,{8}8/1,8-5[16:3]/1-4[16:3],,,,6/3,
7/2,8h[2:1]/1h[2:1],,,,,2/7,{16}5,4,
{8}5,6pp7[2:1]/3qq2[2:1],,,,,,,7b,
1,{4}6h[4:1]/1-3[8:1],{2}1q6[8:1]*>5[8:1],
{8}7xv6-4[4:1],7x,,,{2}1s5[16:3]*z5[16:3],
{32},,,,,6,,,,7>2[8:1]/2>5[8:1],,,,,,,,7/2w6[8:1],,,,,,,,2,,,,,,,,,,,,6h[4:1],
,,,,,,,4,,,,2/1-5[8:1],,,,3/4,,,,2/1,,,,4,,,,7/8-4[8:1],
,,,6/5,,,,7/8,,,,5,,,,3b/7b,{4},,{16},,7b,
,,,3b,,7b,,7b,,,,,,8/4,
,8/4,,5>2[8:1]/1<6[8:1],,1/5,,5p4[2:1]/1p8[2:1],,,,,,,,,,,,,,6b,
,2bh[4:1],,,,Cf,,1x,
,1x-3[8:1]*-4[8:1],,1x,,1-7[8:1]*-6[8:1],,,,1s5[8:1],,,,1b,,,,,,8x,
,8x-5[8:1]*-3[8:1],,,,8w4[8:1],,,,8b,,,,,,8,
,4-1[8:1]/8-5[8:1],,,,8-4[8:1]/4-8[8:1],{32},,,,,,,,,,,,,,,,,,,2h[4:1],
,,,,,,,8,,,,6/5-1[8:1],,,,7/8,,,,6/5,,,,8,
,,,3/4-8[8:1],,,,2/1,,,,3/4,,,,1,,,,7b>8qq6b[4:1]/3b>2pp4b[4:1],,,,,,,,,,,,,,,,,,,,5b,
,,,,,,,1b,,,,5b,,,,1bpp3[4:1],,,,,,,,5,
,,,6,,,,7,,2,,7>2[4:1],,,,,,,,2<7[4:1],,,,,,,,3,,,,3-6<7-4-2<1b[32:33],
,,,,,,,,{4}7,{8}8b,8b-6>5b[8:3],,,,,,4b<4[1:1],
,1bx,{4}1bx,
{8}3bx,,,4b>4b[1:1],,2bx,{4}1bx,
{8},,,4b<4[8:11],,8b,{4}8b,
{8}2b,,,5b,{2}5b<8b[4:1],
{16},,1,1,{32}1,,,,,7,,4,,7,,,,7,,,,7/3h[4:1],,,,7,,,,7,
,,,1,,8,,1,,,,2,,6,,2,,,,2,,,,2/6h[4:1],,,,2,,,,2,
,,,5,,4,,5,,,,6b/3,,,,7,,,,8b/4,,,,1,,,,2b/6,,,,3,
,,,4b/6,,5,,4,,,,6b,,,,7/2,,,,8b/1b,,8/1,,,,,,,{16}7,
5,6,5,6,5,6,5,{32}7/4x,3x,2x,1x,8x,7x,6x,5x,4x,3x,2x,1x,8x,7x,6x,5x,4x/8x,1x,
2x,3x,4x,5x,6x,7x,8x,1x,2x,3x,4x,5x,6x,7x,{16}8x-4[8:1],{32},,,,,,8b/2b,Cf,,,,,,,{16}3,
,2,,1,,8,,8-4[8:1]*-5[8:1],{32},,,,,,8b,Cf,,,,,,,{16}6,
,7,,8,,1,,1w5b[8:1],,,,A1f,{32},,,,,,,7/3,
,,,6v3[8:1]/2v7[8:1],,,,7/3,,,,6pp3[2:1]/2pp7[2:1],{4},,,{16},{32},8-4[8:1],
,,,8,,,,8/2qq6b[4:1],,,,,,,,6/2,,,,,,,,7,
,,,7<1[8:3]*p1[8:3],,,,,,,,7,,,,,,,,,,,,,,,,,,,,8<6[8:1],
,,,8>2[8:1],,,,8z4z8b[2:1],,,,8,{4},,{16},,{2}2q6[8:1],
{32}8x,7x,6x,5x,4x,3x,2x,1x,8x,7x,6x,5x,4x,3x,2x,1x,
8x/3x,4x,5x,6x,7x,8x,1x,2x,3x,4x,5x,6x,7x,8x,1x,2x,{4}3xq7[8:1],6b/3b,
{8}5,6,7,{16}8,3,{4}8p4[8:1],5b/A8f,
{8}3,2,1,{16}8,1,{4}8w4b[8:1],8b/Cf/B6f/B2f/B5/B3/B4/E5/E4,
{16}2>5[8:1],1,2,1,{8}2,8,{16}6<1b[8:1],5,6,5,{8}6,4,
{16}4,5,4,5,{8}4,6/3,{2}7b-1>3[8:1]/2b-8<6[8:1],
{8}5x/4x,5xpp7[8:1]/4xqq2[8:1],{32},,,,B5/B4/5bv8<7pp1<5b[4:5]/4bv1>2qq8>4b[4:5],Cf,{16}B8/B1/E8f/E2f,{1},{4},,{16},,{32},7x,
,,,7x,,,,7x>2[4:1],,,,,,,,,,,,,,,,,,,,4-1[8:1],
,,,5-8[8:1],,,,4x,,,,5x,,,2x,3x,,,,,,,,8,,,,8h[4:1]/1h[4:1],,,,,,,,,,7/2,
6/3,5/4,
E
