&title=Theme of Rabi-Ribi
&artist=3R2
&first=-0.165
&des=
&des_5=LilSeven
&lv_5=13+
&inote_5=(175){4},{8},,,,E1,B8,
B7,E7,,,,,E3,B3,
B4,E5,,,,,B1,B7,
B3,B5,,,5-8[4:1]/4v2[4:1],5/4,{16},,,,,,,,1x,
8x,{8}1x,{4}2/7,2bh[8:3]/5bh[8:3],
,4bh[8:3]/7bh[8:3],,1bh[8:3]/5bh[8:3],
,7bh[4:5]/2bh[4:1],{8},5x,5,4,
4,3,3,2,2,{16}1x,7,1,7,1,7,
1,7,{32}1x,2,3,4,5,6,7,8,1,2,3,4,5,6,7,8,1,2,3,4,{4}5/8b-6[16:1],
8/1-5[8:1],1/8-4[8:1],8/1-3[16:1],1/7b-5[16:1],
7/8-4[8:1],8/1-5[8:1],1/2-4[16:1],2/7b-5[16:1],
7/8-4[8:1],8/1-3[16:1],{8}8/1,8w4[12:1],,8,
,3qq4[4:1]/5pp4[4:1],{4}5/3,{8},,6,5,
6/4,3,6,3,6/4,5,6,4,
6,4,6/3,2,3/6,4,6,4,
6/3,2,6,2,6/3,4,6,3,
6,3,6/4,5,4/6,3,6,3h[8:1],
1,3h[8:1],5,3h[8:1],8,3h[8:1],4,D4,
E3,D2,{4}E1,{8}4,5,{4}4/6,
{8}5,4h[8:1],,2/6,{16}7x,1x,7x,1x,{4}8x/7x-4[12:1],
{8}7/8,8-3[12:1],,8/7-4[12:1],,7/4,3,4x,
3bx/5bx,6,3,6bx,5/3,4,3,5,
3bx,5,3/6,7bx,6/3,5bx,3,5,
6bx/3bx,7,3,7bx,3/6,5,3,6,
3bx,6,3/5,4bx,5/3,6bx,3,4h[8:1],
3,5h[8:1],3,6h[8:1],3>7[2:1],7h[8:1],3,E7,
D6,E5,{4}D4,{8}8/4,1/5,{4}2/6,
{8}6/3,7/2,{4}1/8,1-4[8:1]*-3<4[8:1],1b-6[8:1]*-7<6[8:1],
1bw5[8:1],{32}1b,Cf,,,,,,,{4}3/7h[8:1],{8}3,3,
5/2,{16}3,4,,4,{8}3,5/2,5/2,3h[8:1],4,
3h[8:1],5,{4}5b/2bpp5[4:1],{8},,8,8,
7/2,{16}1,8h[16:3],,,{8}1,,2/7,{4}8b-4[16:1],
8b-6[16:1]*-2[16:1],8bw4[8:1],8b,{8}6,6,
4/7,{16}6,5h[16:3],,,{8}6,4/7,4/7,6h[8:1],5,
6h[8:1],4,{4}7b/4b,{8}7,6,{4}5/4b,
4/6,4/7,4/8,4/8,
3/8,2/8,1/8,{8}1/8,8/1,
1/8,8/1,{16}1,7,1,7,2,6,{8}2,,2b/6b,
3b/7b,4b/8b,{4}5b/1bh[8:1],{16}5,1,5,1,{4}4xh[4:1]/8-6[16:1],
{8}8,3h[4:1],{4}5-7[16:1],5/2,{8}1/8-4[12:1],1,
2/8-6[16:1],2,3/8-5[16:1],3,8/4,4,{4}5h[4:1]/4-2[16:1],
{8}4,6h[4:1],{4}1-3[16:1],{8}1/7,8,{4}1/2x-6[12:1],
{8}2/1,1-5[12:1],,1/2,2-6[12:1],3,{4}2/8,
5/7xh[8:1],{8}7h[8:1],5,4/7h[8:1],3,5bx/7h[8:1],4,
3/7h[8:1],2bx,{16}8,1,{8}8,7/1-3[16:1],1/6,{4}1/5,
{8}4/6,3h[2:1]/6-1[16:1],,6,,,8/2,8/3,
8/4,8/5,{32}8x,7,6,5,4,3,2,1,8,7,6,5,4,3,2,1,{4}4xh[4:1]/8x-6[16:1],
{8}8,3h[4:1],{4}5-7[16:1],5/2h[8:1],3h[4:1]/8-6[16:1],
{8}8,2h[4:1],{4}5-7[16:1],5/1-3[16:1],{8}1-7[16:1],6,
1-3[16:1],4,1-7[16:1],6,1,4,1,3qq4[4:1]/5pp4[4:1],
,3/5,{16},,,,5,4,5,4,{4}3b/6b,
{8}5/3,4,{4}3b/5b,{8}5/2,6/1,{4}8b/7bh[8:3],
6h[8:3],{8}5,5h[8:1],4h[8:7],3,3,3,
3,{16}2bx,1,8,7,6,5,4,3,2,1,{32}4bx/8,5,6,7,8x,1,2,3,
4,5,6,7,8x,1,2,3,4,5,6,7,8x,1,2,3,{4}4/8x-6[16:1],8b/1-5[8:1],
1b/8-4[8:1],8b/1-3[16:1],1b/7-5[16:1],7b/8-4[8:1],
8b/1-5[8:1],1b/2-4[16:1],2b/7<5[16:1],7b/8p4[8:1],
8/1q5[8:1],1/2>4[16:1],2/7<5[16:1],7/8q4[8:1],
8/1p5[8:1],1/2>4[16:1],2/8-4[8:1],{8}8b/1-5[8:1],2,
1/8-4[8:1],7,8/1-5[8:1],2,1/8-4[8:1],7,8/1-5[8:1],2,
1/8-4[8:1],7,8/1-5[8:1],2,1/8-4[8:1],7,8b/1-5[8:1],1,
2-6[8:1],2,3-7[8:1],3,4b,4bw8[8:1],,4b,
,6/2,{16}3/7,4/8,5/1,2/6,{4}7/3>3[2:3]*-7[8:1],{64}3,Cf,,,,,,,,,,,,,,,{4}E2,
B7,B3,B5,
{1}D5,
E
