&title=ヰ世界の宝石譚
&artist=sasakure.UK
&first=1.14
&des=你品-你细细品
&lv_5=13.2
&des_5=你品-你细细品
&inote_5=
(116){4},,,,,,,,3,
3q1[2:1],,,,3q8[2:1],
,,,3q7[8:1],
3-8[8:1]*-8[8:1],3-7[8:1],
3-6[8:1]*-6[8:1],3-8[8:1],3-6[8:1],3-7[8:1],
3-5[8:1]*-5[8:1],3-6[8:1],3-7[8:1]*-7[8:1],3-8[8:1],
3-1[8:1]*-1[8:1],3-8[8:1],3-7[8:1],3-6<8[4:1],
{8},,,2-6[8:1],1,2/7-3[8:1]*-3[8:1],8,7,
,,{4}4>8[4:1],{2}8<4[4:1]*<4[4:1],
{8},,2-6[8:1],3,2/5-1[8:1]*-1[8:1],4,{4}5,
4<7[4:1]*<7[4:1],7>2[4:1],,,3<6[8:1],
6<1[8:1]*<1[8:1],{2}1>4[8:1],
{8},,1-3[8:1],2,,8-6[8:1],{4}7,
,4<7[8:1]*<7[8:1],7>2[8:1],2>5[8:1]*>5[8:1],
{1},{4},{16}4<6[16:1],
3,4,3,{4}4,{16}5>3[16:1],6,5,6,
{4}5,{16}2>4[16:1],2,1,1,{4}2,{16}7<5[16:1],7,8,7,
{4}7,{8}7h[16:3],6,{16}5,4,{8}7/3,2h[16:3],3,
{16}4,5,{8}2/6,4/1h[4:1],{16}4,4,{8}5,3,4,5,
6h[8:1],3,{4}4,6,4,
6,4,5p3[4:1],3,
,4,1,6,
,3q1[4:1],{2}6,
{4}8-6[8:1],1-3[8:1],5-3[8:1]*-3[8:1],2-8[8:1],
8-6[8:1]*-6[8:1],4-2[8:1],6-4[8:1]*-4[8:1],2-8[8:1],
8-6[8:1],6-4[8:1],{2}4pp4[4:1]*-2[4:1],
{24},,,,,,2,1,8,7,,,,,,,,,{8}4,3,
{4}5,{16}6,,,6,{64}B7,B8,{32}B1,,,,,{16}6,5,,,5,
{64}B5,B4,{32}B3,,,,,{16}5,4,,,4,{64}B1,B8,{32}B7,,,,,{16}4,3,,,3,
{64}B4,B5,{32}B6,,,,,{16}3,2,,,2,{64}B5,B6,{32}B7,,,,,{16}2,1,,,1,
{64}B2,B3,{32}B4,,,,,{16}1,8,,,8,8,,,8,7,,,7,
7,,,7,6,,,6,6<8[8:1],,,6,6-1[8:1]*-1[8:1],,,6,
5>3[8:1],,,6,5-2[8:1]*-2[8:1],,,5,5-8[8:1],,,6,6-3[8:1]*-3[8:1],,,6,
6-1[8:1],,,6,6-2[8:1],,,6,{2}6<3[4:1]*<3[4:1]*<8[128:13]*<2[64:13]*<7[128:7]*<1[32:5],
,,Cf,
{8}8-5[16:3],7,6-3[8:1],6,
{4}6,{8}3>1[24:7],2<8[0.5657##0.6142],{128}1<7[0.6142##0.6142],,,,,,,,,,,,,,,,,,,8<6[0.6142##0.6304],{4},{16},{64},,{2}C,
{4}1<7[8:1]/2>4[8:1],1x-6[8:1]/2x-5[8:1],
{16},Cf,,,,,,,{4}6-8[8:1]/4-2[8:1],6x-1[8:1]/4x-1[8:1],
{16},Cf,,,,,,,{8}5,5,{4}5-1[4:1],
1-7-5[4:1],5-3-1[4:1],1<5[4:1],5>1[4:1],
{2}C,{8}3/2h[4:1],{16}4,5,{4}6,
{8}8x<6[8:1],8x>2[8:1],{16}8x-4[8:1]*-4[8:1],A7,,A1,{64},,,,,B4f,{4},{16},,{32},{8}4/3h[8:1],
{16}5,6,7/3h[8:1],5,,,{8}3/5h[4:1],{16}2<7[8:1],2,{8}1,2h[8:1],
{16},1,1,2,{8}6h[8:1]/2-6[8:1]*-6[8:1],{16}4,3,{4}2h[8:1],{8}8-4[8:1]*-4[8:1],{16}6h,7h,
{4}8h[8:1],{16}6h[8:1]/3-8[8:1],,,4h,{4}3h[8:1],{16}4h[8:1]/5-1[8:1],,,6,
{4}5h[8:1],{8}7h[8:1]/2-6[8:1],{16}4,3h,{2}2h[8:1],
{4}3,{8}3,2-5[8:1],3,2h[16:1]/7-4[8:1],6,7h[16:1],
,,,,,,3h[8:1]/6-3[8:1],{16}8h,7h,
{2}6h[8:1],{8}6/5-1[8:1],6h,5/6-2[8:1],5h,
{2}6/5,{8}3>8[8:1],4h,{4}4<7[8:1],
{8},,,,6-1[8:1],4h,{4}4-1[8:1],
{8},,,,4>1[8:1],1<6[8:1]*<6[8:1],6>3[8:1],3-7[8:1]*-7[8:1],
{24},,,,,,,,,,,,7,8,1,2,,,,,,,,,,,,,,,{8}3,
2,{4}4>1[8:1],5<8[8:1],
3>1[8:1],6<8[8:1],2-6[8:1],7-4[8:1],
5-2[8:1],3-8[8:1],8-3[8:1],3-6[8:1],
{2}6-1[8:1],{4}4,4,
{24},,,5,4,5,4,5,4,5,4,5,{8}4-2[8:1],3,5-7[8:1],6,
4-1[8:1],3,5-8[8:1]*-8[8:1],6,{24},,{12}E8f,,{4}1-4[8:1]*-4[8:1],
{12},E4f,,,,,{4}3h[8:1]/6-2[8:1],6h[8:1],
{2}2<6[4:1],{4}5>1[4:1],1<5[4:1]*<5[4:1],
{8}5>2[8:1],Cf,,,5,4-1[8:1],3,1h[8:1],
{16},2,{8}3-6[8:1],4,6h[8:1],{16},5,{8}4-8[8:1],,4h[8:1],
{16},3h,{8}2-6[8:1],,2h[8:1],{16},3h,{8}4p5[4:1],3-6[16:3],4h[8:1],
,,{4}4-8[8:1],8-4[8:1],4-7[8:1],
{1}7-2[8:1],
,,,{8}1>4[2:1],
8,{4}7h[2:1],{8},,,,8<5[2:1],
1,{4}2h[2:1],,,,,4>8[4:1],
8<4[4:1]*<4[4:1],
4>8[4:1],8<4[16:5],{16},4>8[8:3]*>8[8:3],,,,,,8<4[2:1],
,,,,,,,4>8[16:11]*>8[16:11],{1},{4},C,
{1},,{4},{24}B4,
B3,B2,B1,,,,,,,,,B8,B7,B6,B5,,,,,,,,,E4,
E3,{3}E2,{24},,E8,E7,{6}E6,
{24},,,,,,A8,A7,A6,A5,,,,,,,,,A1,A2,A3,A4,,,,,,,,,,,,,,,D8,
D7,{12}D6,{24},,,,,,,,D2,
D3,{12}D4,{24},,,,,,,,,,E4,E3,E2,E1,E8,E7,E6,E5,E4,E3,
E2,E1,,,,,{8}5-1[8:1],4-1[8:1],{2}4b-8[8:1]*-8[8:1],
{24}1bx,2x,3x,4x,,,3bx,4x,5x,6x,,,5bx,6x,7x,8x,,,,,,,,,{8}5-2[8:1],
4-8[8:1],{4}5b-1[8:1]*-1[8:1],{24},,,,,,,,,,,,4bx,
3x,2x,1x,,,2bx,1x,8x,7x,,,8bx,7x,6x,5x,,,,,,,,,{8}2-6[8:1],
1,8-4[8:1],7-3[8:1],{4}8b,{8}5-1[8:1],6-2[8:1],
{4}5b,{8}1-3[8:1],8-6[8:1],1-4[8:1],8-5[8:1],1-5[8:1],8-4[8:1],
1,{16}8,Cf,{4}6<3[8:3]*<7[64:5]*<8[32:5]*<1[128:29]*<2[64:19],{8},,,,4h[8:1]/7-3[8:1],
{16}5h,6h,{32}7h[8:1],,,B3f,,,,,{8}8h[8:1]/1-4[8:1],{16}3h,2h,{64}1h[8:1],,,,,B3f,,,,,,,,,,,{8}6<3>6[2:1]*<3[4:1],
4h[8:1],,5h[8:1],,4h[8:1],,,5h[8:1]/2-6[8:1],
{16}4h,3h,{32}2h[8:1],,,B6f,,,,,{8}1h[8:1]/8-5[8:1],{16}6h,7h,{64}8h[8:1],,,,,B6f,,,,,,,,,,,{8}3>6<3[2:1]*>6[4:1],
5h[8:1],,4h[8:1],,5h[8:1],{24},,,,,,3,
4,3,4,3,4,3bx,4,3,4,3,4,3bx,4,2,4,2,4,2bx,4,1,4,1,4,
1bx,4,8,4,8,4,8bx,4,7,4,7,4,{48}7bx,8bx,1bx,2bx,3bx,4bx,,,,,,,,,,,,,,,,,,,{4}8bxh[4:1]/1bxV35[4:1],
1xh[8:1],{16},3xh[16:1],{8}6xh[16:1],{16}3xh[16:1],6xh[16:1],,3xh[16:1],
{1}6x<3>6b[2:1],
{48}A8,D8,A7,D7,A6,D6,A5,D5,A4,D4,A3,D3,A2,D2,A1,D1,A8,D8,A7,D7,A6,D6,A5,D5,{2}4xh[4:1],
{24}8x,1x,7x,2x,6,3,5,4h[24:41],,,,,{8}5qq3[8:1],6,{64},,,,,B2,,,,,,,,,,,{8}2p6[8:1],
1,{64},,,,,B7,{16},,{64},,{12}6p8[8:1],7,{16},,{64},,{192},{64}B1,,,,,,,,,,,,,,,,,,,{8}1-3[8:1],
2,{64}8-6[8:1],,,,,E3,,,7,,,,,,,,,,,,,E7,,,{4}4>8[4:1],
8<4[4:1]*<4[4:1],4>8[4:1],,,{1}8-5q4-1[2:1],
{8}8-5[8:1],1-4[8:1],8-6[8:1],1-3[8:1],,1>4>1[4:1]*<6[8:1],,,,,{4}C,
E
