&title=どんぐりGAME
&artist=こっちのけんと
&first=0
&des=Dumpy
&demo_seek=50.74
&lv_6=13
&inote_6=(130){1},
{2},
{32}3x,4x,5hx[32:14],,,,,,
{4},6bpp5[8:4],,
{8}4-8[8:1],,4b,,5,5,4<6[8:1],
{16}5,3,4,,
{8},,,
{4}2>4[8:1]/5<7[8:1],2/5,7<5[8:1]/4>2[8:1],7/4,2>4[8:1]/5<7[8:1],2/5,7<5[8:1]/4>2[8:1],7/4,2>4[8:1]/5<7[8:1],2/5p4[8:3],,,
{8},
{16}3,5,4,,
{8}4-1[8:1]*-7[8:1],4,4,,,
{4}2-4[8:1]/5<7[8:1],2/5,7-5[8:1]/4>2[8:1],7/4v7[8:1]*-8[8:1],4b-7-3-1[4:1],,,1>4[8:1]*<6[8:1],1,8<5[8:1]*>3[8:1],8,1-5[8:1]/7,
{8}8-4[8:1],7,1-5[8:1],2,8<5[16:3],7,2h[8:3],,,4,4-1[8:1]*-7[8:1],4,4,,2-5[8:1]/8-5[8:1],,2/8,,5<8[8:1]/1>4[8:1],,1/5,,2-7[8:1]/6-3[8:1],,2/6,,1h[8:1]/8h[8:1],,1-5[8:1]/8-4[8:1],2/7,1/8,,1-3[8:1]/8-6[8:1],2/7,1/8,,
{8}1>4[16:3],,7h[8:3],,,5,5-8[8:1]*-2[8:1],5,5,,7-4[8:1]/1-4[8:1],,7/1,,4>1[8:1]/8<5[8:1],,8/4,,7-2[8:1]/3-6[8:1],,7/3,,8h[8:1]/1h[8:1],,8-4[8:1]/1-5[8:1],7/2,8/1,,8-6[8:1]/1-3[8:1],7/2,8>7[8:3]/1<2[8:3],,,,,,
{8}3h[16:8]/6h[16:10],,,,,3,3>8[8:2],3,3h[8:4],,,,,6,6<1[8:2],6,6h[8:4],,,,,6>3pp6[1:1],,,
{1},
{4}3h[8:1]/5h[8:1],3h[8:1]/5h[8:1],3h[8:1]/5<1[8:3],3h[8:1],3h[8:1],6h[8:1]/4h[8:1],6h[8:1]/4h[8:1],6h[8:1]/4>8[8:3],6h[8:1],6h[8:1],
{16}6,,6,,6,4,5,3,
{4}C,,1>5[8:1]b*<5[8:1]b,1b,
{4}5p4[4:1]/4,5/4>5[4:1],,E2/E3/A2f,
{4}5p4[4:1]/4,5/4>5[4:1],,E2/E3/A2f,
{4}5p4[4:1]/4,5/4>5[4:1],,E2/E3/A2f,
{4}1>4[8:1]*<6[8:1],1,8<5[8:1]*>3[8:1],8,
{4}5p4[4:1]/4,5/4>5[4:1],,E2/E3/A2f,
{4}5p4[4:1]/4,5/4>5[4:1],,E2/E3/A2f,
{4}5p4[4:1]/4,5/4>5[4:1],,E2/E3/A2f,
{4}1-4[8:1]b*-6[8:1]b,1,8-5[8:1]b*-3[8:1]b,8,
{8}5,5,5-8[8:1],5-2[8:1],5x-1[8:1],,,,
{8}4,4,4-1[8:1],4-7[8:1],4x-8[8:1],,,,
{8}7,7,7-4[8:1],7-2[8:1],7x-3[8:1],,,,
{4}8<5[8:1]*>3[8:1],8,1>4[8:1]*<6[8:1],1,
{8}4,4,4-1[8:1],4-7[8:1],4x-8[8:1],4x,4x,,
{8}5,5,5-8[8:1],5-2[8:1],5x-1[8:1],5x,5x,,
{8}2,2,2-5[8:1],2-7[8:1],2x-6[8:1],2x,2x,,
{4}8<5[8:1]*>3[8:1],8,1>4[8:1]*<6[8:1],1w5[8:1],
{1},
{4}1>5[4:1],5<1[4:1],1V35[4:1],5V71[4:1],1,5,
{4}8<4[4:1],4>8[4:1],8V64[4:1],4V28[4:1],8,4,
{4}2-5[8:1]/6-1[8:1],2/6,7-4[8:1]/3-8[8:1],7/3,
{4}1-4[8:1]/5-8[8:1],1/5,8-5[8:1]/4-1[8:1],8/4,
{4}6-3[8:1]/2-7[8:1],6/2,7-2[8:1]/3-6[8:1],7q1[4:3]/3q5[4:3]b,
{1},
{8}2-5[8:1]/6-1[8:1],,2/6,,1-5[8:1]/8-4[8:1],2/7,,,
{8}2-5[8:1]/6-1[8:1],,2/6,,1-5[8:1]/8-4[8:1],2/7,,,
{8}2-5[8:1]/6-1[8:1],,2/6,,1-5[8:1]/8-4[8:1],2/7,,,
{4}1w5[8:1],1bx,8w4[8:1],8bx,
{8}6pp4>5[2:1]/5,4,6/5,,,,E2/E1/A1f,,
{8}6pp4>5[2:1]/5,4,6/5,,,,4bx-8>1s5[4:3],,
{1},
{4}2>5[8:1]/6<1[8:1],2/6,7<4[8:1]/3>8[8:1],7b/3b,
{8}1x,1x,1-3[8:1],1-7[8:1],1xw5[8:1],,,,
{8}8x,8x,8-6[8:1],8-2[8:1],8xw4[8:1],,,,
{8}3x,3x,3-1[8:1],3-5[8:1],3xw7[8:1],,,,
{4}8xqq6[8:1]/2xpp4[8:1],8/2,1pp3[8:1]/7qq5[8:1],1/7,
{8}8x,8x,8-6[8:1]b,8-2[8:1]b,8xw4[8:1],8x,8x,,
{8}1x,1x,1-3[8:1]b,1-7[8:1]b,1xw5[8:1],1x,1x,,
{8}6x,6x,6-8[8:1]b,6-4[8:1]b,6xw2[8:1],6x,6x,,
{4}1xw5[8:1],1,8w4[8:1],8,
{4}4xbv1>4[2:3],A5,B5,C,B8,A8,D7,A5,
{4}5<8v7-5[2:3],A4,A3,A2,B3,B4,D4,A4,
{4}4v1>4[2:3],A5,B5,C,B8,A8,D7,A5,
{4}5-8v7-5[2:3],A4,B3,B2,A3,B4,D4,A4,
{4}8bp3[8:1]/1bp3[8:1],E1/D1,1-5[8:1]*v4>3[8:1],,
{4}1V74[8:1],E2/B1,8<6[8:1]/1q5[8:1],E7/B7,
{4}1<3v6[2:1],3,,2pp2[4:3],C,
E
