&title=有明/Ariake
&artist=SIINCA
&first=1.315
&des=Tsuuisa
&des_5=Tsuuisa
&lv_5=14
&inote_5=(95){4}3/8-5[4:5]
,4h[4:1],,2h[4:1],
,3,,7/1-4[4:5],
{2}5h[4:1],7h[4:1],
{4}6,5<1[4:1],,2>6[4:1],
{16}B8,B1,B2,B3,{4}4x<8[4:1],{16}B2,B3,B4,B5,{4}6x<2[4:1],
{16}B4,B5,B6,B7,{4}8x>4[4:1],{16}B6,B7,B8,B1,2x>6[4:1],E3,B4,E6,
2-6[4:1],E7,E8,E1,E2,E3,E4,E5,{4}5xV71[4:1],{16}E5,E4,E3,E2,
3x-7[4:1],E8,E7,E6,E5,E4,E3,E2,{2}E1/A1h[2:1]/A8h[2:1],
{64}A7/A2,D7/D3,A6/A3,D6/D4,A5/A4/E5f,5x-2-8-5-3-1-7-5[64:97]/4x-7-1-4-6-8-2-4[64:107],{1},{4},,,{16},,{32},{16}6h[8:1],
5,,3h[8:1],{8}4,{16}7h[8:1],5,,2h[8:1],{8}4,{16}8h[8:1],5,,7h[16:1],
,,{8}3h[16:1]/5h[16:1],{32}4,4h,{16}4,{8}2h[16:1]/6h[16:1],{32}4,4h,{16}4,{8}1h[16:1]/7h[16:1],{32}4,4h,{16}4,{8}8h[8:1],
{16}4-7[8:1],5,4-1[8:1],3,4-2-8[8:1],5,4-6-8[8:1],3,4-8[8:1],5,4,3,4,5,,,1-4[8:1],
2,1-6[8:1],8,1-7-5[8:1],2,1-3-5[8:1],8,1-5[8:1],2,1,8-4[16:1],1,2,8,8,
,7,8-5[8:1],1,8-3[8:1],7,8-6-4[8:1],1,8-2-4[8:1],7,8-4[8:1],1,8,7,{8}8h[8:1],
{16},6,5-8[8:1],4,5-2[8:1],6,5-7-1[8:1],4,5-3-1[8:1],6,5-1[8:1],4,5,6,,,7h,
8/7h,7,2,{32}1,2,{16}1,{32},5,{16}6,3h,4/3h,{32}5,,,3,4,3,{16}2,7h,7h,
8h,8h,6,{32}2,1,,1,{16}8,{32},1,,,{16}6h,{32}6h,5,{16}4h,{32}4h,5,,4,{16}5,3h,3h,
2h[32:1],3,2h[32:1],4,2h[32:1],5,2h[32:1],6,2h[32:1],7,2h[32:1],8,2h[32:1],1,2h[32:1],8,
{32}2xh[32:1],7,2xh[32:1],6,2xh[32:1],5,2xh[32:1],4,2xh[32:1],3,2h,2h,2h,2h,2-6b[1.4211##0.2368],2bh[32:17],,,,,,,,,,,,6-2[16:1],,,,,,,,,,,,,1,
8,7,6,1,8,7,6,1,8,7,6,1,8,{16}7,{32}1,2,3,4,1,2,3,4,
1,2,3,4,1,2,3,4,8,7,6,5,8,7,6,5,1,2,3,4,1,2,3,4,{16}8b,5h[32:3],{32},,3,7,
{16}2x/6x,8,4,7,{8}3,{16}6,2,,5,{8}1,{16}4,8,,3,
{8}7,{16}2,4,6,,,1,{8}5,{16}4,{32}8,7,6,5,{16}8,{32}8,8,8,{64}8,E8/E1,
E7/E2,E6/E3,E5/E4/B4f,4x-2-8[64:5],,,,,{32}5-7-1[16:1],6,{64},,,,4,,,4h,,,,,{16}5v3[16:1],4,5-7[16:1],5,{8}5-1[16:1],{4}1-5[16:1],
{16},,8-6[16:1],4h,4h/8-2[16:1],4,4h/8s4[8:1],4h,4-8[8:1],4,{8}8,,4,
{16}2,3,5h/2-4[16:1],5h,6,6,7h/2-8[16:1],7h,6-4[16:1],3,2-6[16:1],7h[16:1],,2,{8}2,
Cf,{16}5h[16:3],4,3,2h[16:1],1h[16:1],8h[16:1],7h[16:1],6h[16:1],5h[16:1],4h[16:1],{4}3-7[16:1],
{16}6-1[16:1],5,4,3,6/2-5[16:1],8,7,6,2/5-8[16:1],4,3,2,5/1-6[16:1],7,6,5,
1/4-8[16:1],3,2,1,{8}4/8-2>3[16:1],3x-5<6[16:1],6x-8>1[16:1],1x-3<4[16:1],4x,7x,
{16},,,,5/1-3[16:1],5x,1/5-7[16:1],1x,5/1-7[16:1],5x,1/5-3[16:1],1x,5/1-3[16:1],5x,1/5,1x,
{2}1xqq4[32:5],{16}4,5,{32}6,5,6,4,{16}5,1,1,{32}2,4,
3,5,{16}3,{32}3,6,3,7,3,8,3,1,3,8,{16}3,{32}3,7,{16}3,{32}7,5,7,4,{16}7,{32}7,3,7,2,7,1,
7,8,1,2,3,4,5,7,7,8,1,2,3,4,6,6,7,8,1,2,3,6,7,8,1/4,5,6,7,8/3,4,5,6,
{16}1/7,{32}1,2,3,4,5/1,8,,7,6,5/1,2,3,4,5/1,8,7,6,5/1,2,3,4,5/1,8,7,6,5/1,2,3,4,5bx/1x,
6,7,8,1/5,2,3,4,5/1,6,7,8,1/5,2,3,4,5/1,6b,7,8,1/6,7b,8,1,2/7,8b,1,2,3/8,1b,2,3,4,
{2}5b<8[4:1],1>4[4:1],
{4}7-3[4:1],3-1-5[4:1],{2}5-7-3[4:1],
{64},,,,8,7,6,5,7,6,5,4,,,,,,,,,8,1,2,3,1,2,3,4,,,,,,,,,7,6,5,4,6,5,4,3,,,,,,,,,1,2,3,4,2,3,4,5,,,,,,,,,5,
6,7,8,6,7,8,1,,,,,,,,,4,3,2,1,3,2,1,8,,,,,{32}8,7h,6h,5h,4h,3h,2h,1h,{8}6h,6/4h[8:1],
{64}5x,B5,{32}Ch[32:31],{4},,,{16},,,{1}1bx-4-6-1-3-5-7-1<1-5-8-2-5-7-1-3-5>5-1b[4:13],
{4},,,,,,,,,,,1b/4bh[4:1],
8>3[8:1],8/5<8[8:1],5/2>5[8:1],2/7>2[8:1],
7/4<7[8:1],4/1>4[8:1],1h[16:1]/4<7[8:1],4/1>4[8:1],
1/6<1[8:1],6-2[8:1],6>3[8:1],6/4-8[8:1],
4/3<6[8:1],3/8>3[8:1],8/5<8[8:1],5>1[4:1],
{16}4x,B5,6x,B7,{4}8x<5>4[4:1],{16}6x,B7,8x,B1,{4}2x<6[4:1],
{16}8x,B1,2x,B3,{4}4x>8[4:1],{16}2x,B3,4x,B5,{4}6x>2[4:1],
{16}4x,B5,6x,B7,{4}8x<4[4:1],{16}6x,B7,8x,B1,{4}2x<6[4:1],
{16}8x,B1,2x,B3,{4}4x>8[4:1],{16}2x,B3,4x,B5,{4}6x-1b[16:1],
{8}2h[16:1],{32}3,2h,,,8,6h,{16}7,3,6h,4,{32}5,5h,{16}5,4h/6h,4h/6h,{32}5,5h,{16}5,3h/7h,
3h/7h,{32}5,5h,{16}5,2h/8h,2h/8h,{32}5,5h,{16}5,1h[4:1],{32}6,7h,7,8h,{8}8,{32}2,3h,3,4h,4,5h,{16}5,
6b,7,8/4b,5,6/3b,4,5/2b,3,4/1b,2,3/8b,1,2/7b,8,1/6b,7,
{32}8/5b,6,7,8/4b,5,6,7/3b,4,5,6,2b/7x,3,4,5,{16}6b-2b[8:1]/1b-5b[8:1],{4},{16},,{64}2x/5x,A2/A5,B2/B5,C,B1/B6,A1/A6,{1},,{32},{16}4h[4:1],
,,6,{8}5,3,{16},5h[16:5],,,{8}2,8,
{16}1h[4:1],,,8,,,{8}8h[16:9],{16},1,,,{4}1h[16:3],
{64}E8/E2,B7/B2,E7/E3,B6/B3,B5/B4,E5,
E
