&title=異星にいこうね
&artist=いよわ feat.音楽的同位体 星界
&first=1.34
&des=こむぎこ
&lv_5=13
&inote_5=(192){4}4x,4x,{12}5x,4x,5x,4x>2[8:1],,,,,,{4}5h[4:1],
3,4/7<5[8:1],
{2}4h[4:1],{4}4/5,4/5<7[8:1],
,4h[4:1],5,2>4[8:1],
{2}5h[4:1],{4}3/4,3/4V68[4:1],
{2}4h[4:1],{4}5/6,6/5V31[4:1],
,8V64[4:1],,3v8[4:1],
{2}4h[4:1],{6}2,{12}2,4,,4,
{4}5,3,{12}5h[6:1]/4h[6:1],{3},{12}4x,
{4}5,4/2>4[8:1],5,6<8[8:1],
{2}4h[4:1],{6}5/7,{12}6,4,,5,
{4}3,5/3>1[8:1],4,5<7[8:1],
{2}4h[4:1],{6}7,{12}1,8,,8,
{4}7h[2:1],5,2h[2:1],4,
5v2[4:1],6x,4v7[4:1],3x,
5-1-3[4:1],6x,4-8-6[4:1],3x,
{1}3<6[2:1]*q6[2:1],
{2}5h[4:1]/4xqq1[2:3],5h[4:1],
{4}E6,B6,{2}B7,
1h[4:1]/8xqq5[2:3],1h[4:1],
{4}E2,B2,{2}B3,
4h[4:1]/3h[6:1],5h[4:1]/4h[6:1],
{6}3x,{12}3,4x,,4,{6}5x,{12}5,6xh[4:1],{6},5,
{12}5,7,,7,{6}8,{12}8,1>7q4q1b[4:3],{6},,,,,,,{2}5/6h[12:5],
7h[4:1]/5q2[8:1],
4/3h[12:5],{4}2/4<7[8:1],1-5[8:1],
8-4[8:1],7-3[8:1],,{12}4,,4,
3qq7[2:1],{3},{12}5h[3:1],{2},{4}1>4[8:1],
1<6[8:1],5>2[8:1],5-1[4:1],
1<6[4:1],6-2[4:1],2>5[4:1],5<4[2:1],
{3},,{12}5x,4x>5b[4:1],{6},{2}C,
{12}3,4,3,6,5,6,
{2}3h[12:5],2h[4:1]/4p7[8:1],
5/6h[12:5],{4}7/5>2[8:1],8-4[8:1],
1-5[8:1],2-6[8:1],,{12}5,,5,
6pp2[2:1],{3},{12}4xh[3:1],{2},{4}8<5[8:1],
8>3[8:1],8p4[8:1],2-5[8:1],
7p3[8:1],1q5[8:1],8p4[4:1],4>5[2:1],
{3},,{12}4x,5x<4b[4:1],{6},{2}C,
{12}5,4,6,4,5,3,
{4}4x>2[8:1],5h[4:1],{6}4,{12}5,6,,6,
{4}8<5[8:1],C,{12}5x,4x,5x,4x,,4,
{4}5<7[8:1],4h[4:1],{6}5,{12}4,3,,3,
{4}1>4[8:1],C,{6}5h[6:1],4h[6:1],5h[6:1],
3,{12}3,4V68[4:1],,3,{4}4,4h[4:1],
{6}6,{12}6,5V31[4:1],,6,{4}5,5h[4:1],
{6}3,{12}3,1,,1,{6}8,{12}8,6,,6,
{4}3,6,{6}5h[6:1]/4h[6:1],,5x,
5x,{12}5x,4,,4,{6}3,{12}3,4<7[8:1],,2,
{6}4q8[4:1],{12}3,4,,,,,,5,4,5,
{6}4,{12}4,5x,,5,{6}6,{12}6,5>2[8:1],,7,
{6}5p1[4:1],{12}6,5,,,,,,4,,5,
4,5,4,5h[6:1],,3x,{6}3x,{12}5,4h[6:1],,6x,
{6}6x,{12}4,5h[6:1],,2x,{6}2x,{12}4,3h[6:1],,7x,
{6}7x,{12}5,6-8[4:1],,8x,{6}8xv5[4:1],{12}1,1,,2x,
{6}2x,{12}3,3-1[4:1],,1x,{6}1xv4[4:1],{12}8,8,,7x,
{4}7xp5q7[2:7],{2},{4}A1,
,,,A2,
,,,A3,
,,,A4,
{16},,,{64},,,{128},6,5,{64},,,,,,,,,,,,,,,{128}4,5,{64},,,,,,,,,,,,,,,{128}3,4,{64},,,,,,,,,,,,,,,{128}5,
4,{64},,,,,,,,,,,,,,,{128}5,6,{64},,,,,,,,,,,,,,,{128}7,8,{64},,,,,,,,,,,,,,,{128}1,2,{64},,,,,,,,,,,,,,,{128}3,
4,{64},,,,,,,,,,,,,,,{128}4,5,{64},,,,,,,,,,,,,,,{128}3,6,{64},,,,,,,,,,,,,,,{128}2,7,{64},,,,,,,,,,,,,,,{128}1,
{4}8,E1,E5,E1,
5b/4b,{12}3x/4x,,3,{6}4,{12}4,2>5[8:1],,2,
{4}8,{12}6x/5x,,6,{6}5,{12}5,7<4[8:1],,7,
{4}1-5[8:1],8-4[8:1],3h[4:1],{12}5,,5,
{6}2,{12}2,3qq7[2:1],{3},5xh[3:1],
{4},1>4[8:1],1<6[8:1],5>2[8:1],
5V37[4:1],7V51[4:1],{2}1V37[4:1],
{12}5<4[2:1],{6},,,,,{12}5x,
{4}4x>5b[4:1],C,,{12}3,4,3,
6,5,6,4xh[2:1],{3},{12}6,6<2[4:1],{6},{4}2v4[4:1],
3h[2:1],{6},{12}5,5p4[4:1],{6},{4}4>1[4:1],
1q6[4:1],6<1[4:1],1>6[4:1],
{3}6qq3[4:3],,8h[3:1],
{4},1>4[8:1],1<6[8:1],1q5[8:1],
7-4[8:1],7x/2q6[8:1],2x/8p4[8:1],8x/1q5[4:1],
5q4[4:1]*<4[4:1],{2},{4}5h[4:1],
4h[4:1],{12}8,,1,{2}8w4[8:1],
{4},6h[4:1]/5>2[8:1],5,{12}8,7,6,
{4}5/4,3h[4:1]/4<7[8:1],{6}4,{12}8,1,2,3,
{4}4/5,7h[4:1]/5v2[8:1],5,{12}8,7,6,
{4}5/4,2h[4:1]/4v7[8:1],{6}4,{12}8,1,2,3,
{4}4/5,7h[4:1]/8>3[8:1],8,{12}5,6,7,
{4}8/1,2h[4:1]/1<6[8:1],{6}1,{12}5,4,3,2,
{4}1/8,6h[4:1]/8v3[8:1],8,{12}5,6,7,
{4}8/1,3h[4:1]/1v6[8:1],{6}1,{12}5,4,3,2,
{1}8/1-4[8:1],
E
