&title=To the Milky Way
&artist=黒魔
&first=0.039
&des=
&lv_5=14
&des_5=Initだー!
&inote_5=
(186){4},{8},,,,,,6h[8:3]/4h[4:1],
,,5h[4:1],,4h[4:1],,3h[4:1],
,4,,3/4,{4}3/4,{8}3h[8:3],4,
5,6h[4:1],5,4,,5qq1[8:7]*pp1[8:7],,,,,,,,,,,1h[4:1]/2h[4:1],
,,1h[4:1]/8h[4:1],,,,7h[2:1],
,8h[4:1],,,7,8,1,2,
,8,1,2,,1pp5[16:15]*qq5[16:15],2,1,
,,,,,,{4}A5f,
5x/6h[8:1],4/6h[8:1],4/7h[8:1],4/5h[8:1],
5/3h[8:1],4/3h[8:1],5/2h[8:1],5/4h[8:1],
5h[8:1]/1-4[8:1],5h[8:1],6h[8:1]/2-7[8:1],6h[8:1],
7xh[8:1]/6qq3[8:5],8h[8:1],1h[8:1],2h[8:1],
3xh[8:1]/1-4[8:1],3h[8:1],2h[8:1]/5-8[8:1],2h[8:1],
1h[8:1]/8x-3[8:1],1h[8:1],2h[8:1]/3x-6[8:1],2h[8:1],
{8},6-1[8:1],5,6,,3-8[8:1],4,3,
,8xpp3[8:3]*qq5[8:3],{4}8x,{8},,,,5bx/4bx,
5bh[4:11]/4bz8[8:7],,,,,,,,,,,,,,6h[8:3],
,,,,,4,,2h[4:1],
,3,{16}3,2,3,2,4,3,5,4,{4}6,
{8}7-5[4:1],7,,1-7[4:1],{4}1,{8}2-5[4:1],2,
,8-4[4:1],{4}8,{8}2-7[4:1],2,,4-8[4:1],
{4}4,{8}6-2[4:1],6,,8-3[4:1],{4}8,
{8},1>8[8:5],{4}1,{8},,,,1b-5[8:21],
,,D2,A2,D3,A3,D4,
{4}A4,E2/B2,B7/E7/B6,B8/B1,
{32}B3,B4,,,,,,,{8}B6,E6,,B2/E3/B3,B7/E7/B6,Cfh[8:7],
,,,,,,{4}B2/B3/B7/B6,
{16}7bx,8x,7x,8x,{8}7x,{16}1bx,8,1,8,{8}1,{16}7b,6,7,6,
{8}7,{16}2b,1,2,1,{8}2,{16}E4,B4,B6,E7,{12}1bx,,7bx/6bx,
,3bx/4bx,,{4}1bx/8bx,{6}7bx/6bx,2bx/3bx,5bxpp8[24:7]/4bxqq1[24:7],
{8}5bx/4bx,{16},,,,,,,,1,8,{8}1-4[8:1],1,
1bx-6[8:1],{16}6,6,{8}1-3[8:1],5-8[8:1],1,5-2[8:1],4,5,
1x-6[8:1],2x-5[8:1],1x-7[8:1],2x-6[8:1],1x-5[8:1],2x-4[8:1],1x,2x,
8x<5[8:1],1,2x>5[8:1],1,8x<4[8:1],1,2x>7[2:1],1,
{16},,,,,,,,,,1,8,{8}1<7[8:1],6,
1-3[8:1],{16}4,4,{8}1-4[8:1],5,1-5[8:1],6,1<5[4:1],8,
{4}5x>1[4:1],1V75[4:1],5V31[4:1],1,
{16}7x-4[8:1],8x,7x,8x,{4}7bx,{16}2x-5[8:1],1x,2x,1x,{4}2bx,
{16}8bx/B6/B5/E6f,,,2bx/B7/B6/E7f,,,{8}5bx/B2/B1/E2f,{16},,7,8,{8}7-4[8:1],7,
7x-2[8:1],{16}3,3,{8}7-5[8:1],4,7-1[8:1],1,7/4-1[8:1],5,
6/4x-7[8:1],5,2/4x-2[8:1],3,6/4x-6[8:1],5,4x/2x,3,
8x-6[8:1],1x-5[8:1],8x-4[8:1],1x-3[8:1],8x-5[8:1],1x-6[8:1],8x>7[2:1],1x,
8bx,{16},,,,,,,,8,1,{8}8xqq7[8:1],8,
{16}8x>2[8:1],,,D8,{4}8xqq7[8:1],{16}8x>3[8:1],,,D8,{4}8xqq7[8:1],
{16}8x>4[8:1],,,D8,{4}8xqq7[8:1],{16}8x>5[8:1],,,D8,{4}8x,
{16}8x,4x,8x,4x,7,3,7,3,6,2,6,2,5,1,5,1,
5,8,5,8,5,8,5,8,5,4,3,2,1x/5x,8x/4x,7x/3x,6x/2x,
{1}5b/1b-5[64:111],
{4},,1-5b[16:1],1bx,
{8}4/3,4/3,3/2,3/2,2/1,1/2,1/8,1/8,
{16}8,7,6,5,1,2,3,{32}4,8,7,6,5,4,3,2,1,8b/4b,,,,,,,,,{8}7b/8b,
7b/8b,{16}E6,B5,B3,E3,{8}8b/1b,8b/1b,{16}A3,E4,B5,B6,
,,{8}7b/8b,{16},1b/2b,,,{4}5b-8[8:1]/4b-1[8:1],Cf/E5/E1/B8/B1/B5/B4/B7/B6/B2/B3,
{8}8bx/1bx,8b/1b,{16}6,5,6,5,{8}8b/1b,8b/1b,{16}3,4,3,4,
,,{8}7bx/8bx,{16},2bx/3bx,,,{2}5bx-8[8:1]/4bx-1[8:1],
{1}Cf/8bx<8b[64:121]*<8-2V46-8[2:7],
{4},,,,,,,,,,,,5h[1:2],
B1,E3,E4,
E5,E6,E7,B8,
4h[4:7],D8,D7,D6,
D5,D4,D3,D2,
{8}8<5[8:1],1,2,3>8[8:1],4,5,6>3[8:1],7,
8,1<6[8:1],2,3,{2}4w8[8:1],
{8}8-4[8:1],7,6,5-1[8:1],4,3,2-6[8:1],1,
8,7-3[8:1],6,5,{2}4w8[8:1],
{8}8bx/1bx,8b/1b,B1,B7,B3,B6,E2/B2,E7,
E4,E5/B5,B2/E3,E7/B6,E2/B1,E6/B6,B3/E3,C,
{12}8bx/3bx,2,2,7b/1b,8,8,8bx/3b,2,1,3bx/8b,1,2,
{1}8h[4:3]/3h[4:3],
{4}B7/E7/B6,B2/E3/B3,{16}B6/B5/E6,,,B2/E3/B3,,,{8}B7/B6,
{16}C,,,B2/B3,,,{8}C,{16}7x-3[8:1],8x,6x,1x,{4}7bx,
{8}5b/4b,6b/3b,7b/2b,{16}8,1,7,2,8h[16:1],1h[16:1],7h[16:1],2h[16:1],6h[16:1],3h[16:1],
5,4,5,4,5,4,5,4,5,4,5,4,5,4,5,4,
6,4,6,4,6,4,6,4,6,4,6,4,6,4,6,4,
6,3,6,3,6,3,6,3,6,3,6,3,6,3,6,3,
7,2,7,2,8,1,7,8,6,1,5,2,4,3,4,4,
4,4,4,4,4,4,4,4,4,4,4,4,4,4,4,4,
5,5,5,5,5,5,5,5,5,5,5,5,5,5,5,5,
5bx/4bx,,,4b/2b,,,{8}8b/6b,{16},3b/1b,,,{8}2b/8b,7b/1b,
{16}7,1,7,2,7,3,7,4,7,5,7,4,7,3,7,2,
8,1,7,1,6,1,5,1,4,1,5,1,6,1,7,1,
8,1,8,1,8,1,8,1,8,1,7,2,8,1,7,2,
8,1,8,1,8,1,8,1,8,1,7,1,6,1,5,1,
{8}5bx,5bxh[8:1],{16}1x,2x,3x,4x,{8}5bx,5bxh[8:1],{16}1x,8x,7x,6x,
{8}5bx/1bx,5bx/1bx,{16}1x/5x,2x/6x,3x/7x,4x/8x,{8}5bx/1bx,5bx/1bx,{16}8x/4x,7x/3x,6x/2x,5x/1x,
{1}4bxh[1:2]/8bx>7[16:25],
{16},,,,,,,,,,,,,,D8,A8,
{1}D1h[4:9],
,{4},,{8},{16}3,
3,{8}3h[4:3],4,
5,6,7,7,{4}8h[8:11],{8}7,7,
6,5,4,3,2,2,1,1,
8h[8:1],7h[8:1],6h[8:1],5h[8:1],4h[8:1],3h[8:1],2h[8:1],1h[8:1],
5h[8:3]/Ch[8:3],{16},,,,,,,,5,5h[16:3],{4}1h[8:1],
{16}5,1,5,1,5,1,5,1,6,2,6,2,6,2,6,2,
7,3,7,3,8,4,8,4,1,5,1,5,1,5,1,5,
2,6,2,6,2,6,2,6,2,6,2,6,2,6,2,6h[8:5],
{8}2h[16:9],{16},,,,,,,,5x/1x,4x/8x,{8}7x/3x-5[8:1],5x/1x,
3-8[8:1],{16}6,6,{8}3-6[8:1],7,3-1[8:1],7,3<7[4:1],6,
{4}7>3[4:1],3<7[4:1],7>3[4:1],3,
{16}6-1[8:1],5,6,7,{4}6b,{16}3-8[8:1],4,3,2,{4}3b,
{16}5bx/B7/B8/E8f,,,1bx/B6/E6/A6f,,,{8}7bx/E3/A3/B3f,{16},,6,5,{8}6-1[8:1],6,
6x-3[8:1],{16}2,2,{8}6-8[8:1],1,6-4[8:1],4,6x/1x-3[8:1],8,
7x/1x-7[8:1],8,3x/1x-4[8:1],2,7x/1x-6[8:1],8,1x/3x,2,
5x-7[8:1],4x-8[8:1],5x-1[8:1],4x-2[8:1],5x-8[8:1],4x-7[8:1],5x>6[2:1],4x,
5bx,{16},,,,,,,,8,1,{8}8xqq7[8:1],8,
{16}8x>2[8:1],,,D8,{8}8xqq7[8:1],8x,{16}8x>3[8:1],,,D8,{8}8xqq7[8:1],8x,
{16}8x>4[8:1],,,D8,{8}8xqq7[8:1],8x,8x>5[8:1],8x,8x,8x,
{16}8x,4,8,4,7,3,7,3,6,2,6,2,5,1,5,1,
5,4,3,2,1/5,8,7,6,{32}5/3x,4,3,2,1,8,7,6,5/3x,4,3,2,1,8,7,6,
{1}5b-1[16:27],
{4},,5-1b[16:1],5,
{8}2/3,2/3,3/4,4/5,5/6,6/7,7/8,8/1,
{16}1,2,3,4,5/8,7,6,5,{32}4/1,2,3,4,5,6,7,8,{4}1b/5b,
{8}8b/1b,8b/1b,{16}7,6,7,6,{8}8b/1b,8b/1b,{16}2,3,2,3,
,,{8}8b/6b,{16},1b/2b,,,{4}5b-8[8:1]/4b-1[8:1],E5f/D5/A5/B5/B4/E4/A4/E6,
{8}1bx/2bx,8bx/7bx,{16}6,5,6,5,{8}4b/7b,3b/8b,{16}2,1,2,1,
,,{8}B7/B2/B6/B3/Cf,{16},8bx<5[8:1]/1bx>4[8:1],,,D7/A7/D8/A8/A1/D2/A2/D3/E1/E8/E2/B1/B8/D1f,,,E6,B5,B4,E4,E7,
B6,B3,E3,A7,B7,B2,A2,D8,B8,B1,{8}D2h[8:3],{4},{128},E2f,
{64}B1/B2,B8/B3/Cf,B7/B4,{128}B6/B5,E6f,{64}D6fh[64:251],{1},,,{4},,,{16},,{32},{1}1b,
E
