&title=Magical Flavor [Re:Master]
&artist=DECO*27 feat.Tia
&first=0
&des=kyu
&lv_6=13+
&des_6=kyu
&inote_6=
(98){4},{8},,,,,,,,,,,,,,8-6-3[0.4592##0.5357],
1,{4}2h[4:1],{8}4,5/4,6/3,7/2,
1-3-6[0.4592##0.5357],8,{4}7h[4:1],{8}5,3/5,4/6,2/5,
7/4,5,{4}7h[8:1]/3h[8:1],2h[8:1]/6h[8:1],4h[8:1]/5h[8:1],
{8}3b/6b,{16}3,{32}B1,C,{8}B5,4x/5x,{2}Ch[32:9],
{8}2>5[8:1],8/1,2/C,7<4[8:1],1/8,7/C,3>8[8:1],5/4,
3/C,6<1[8:1],4/5,6/C,5h[8:1],3h[8:1],1h[8:1],7h[8:1],
5,4,{4}6h[8:1]/3h[8:1],{8}6/3,{32}6,,,6,{8}5bxh[8:1],4h[8:1],
3-8[8:1],{32}5/4,,,4,{8}3/C,6-1[8:1],{32}4/5,,,5,{8}6/C,3,4,
6b/5b,2/8<3[0.3061##1.5306],8/2,B3,B4,B5,B6,B7,
7/1>6[0.3061##1.5306],1/7,B6,B5,B4,B3,B2,8b/1b,
7/2v4[32:7],1,2/7v5[32:7],8,7/2v4[32:7],1,2/7v5[32:7],8,
7/1v4[32:7],2,1/8v5[32:7],7,8/1w5[32:5],2,{4}1b,
7h[8:1]/3h[8:1],{8}7/3,{32}6,,,6,5,,,5,4,,,4,{8}3,6h[8:1]/2h[8:1],
,6/2,{32}3,,,3,4,,,4,5,,,5,{8}6,7/3,5/4,
3/6v8[32:7],5,6/3v1[32:7],4,3/6v8[32:7],5,6/3v1[32:7],4,
3/5v8[32:7],6,5/4v1[32:7],3,4/5w1[32:5],6,{4}5b,
6h[8:1]/4h[8:1],{8}5-2[32:5]*-8[32:5],5h[8:1]/C,,,{4}1h[8:1],
{8}8-3[32:5]*-5[32:5],8h[8:1]/C,,,{4}4h[8:1],6/3,
{8}7pp2[0.3061##1.8367],B6,B5,B4,B3,B4,B5/B6,5x,
3pp6[0.3061##1.8367],B2,B1,B8,B7,B8,B1/B2,1x,
6h[4:1],3,3h[4:1],5,5h[4:1],4,4bx,B1/B2/B3/B4/B5/B6/B7/B8,
{4}6h[8:1]/4h[8:1],5h[8:1]/3h[8:1],4h[8:1]/8h[8:1],B1/B2/B3/B4/B5/B6/B7/B8,
{8}3/7-3[32:5],8,7/1-5[32:5],2,1/5,6,6/4>5[1:1],5,
4bx,8h[8:7],{4},,,{32},B2,
,,{8}B3,{32}B4,E5,{16}B5,{8}B6,B7,E1,{4}Cf,
{8}1/5w1[8:1],5/1w5[8:1],{4}A5f,{8},6/4,{4}7h[8:1]/3h[8:1],
{8}4/8w4[8:1],8/4w8[8:1],{4}A8f,{8},7/1,{4}6h[8:1]/2h[8:1],
{8}2-5[32:5],1,2/8-3[32:5],7,8/6-1[8:1],5,{4}6/4h[4:1],
{8}8b,3h[8:1]/7h[8:1],,6h[8:1]/2h[8:1],,C,E5,E1,
1/5>2[0.6122##0.3061],6,{32}1/5,8,7,6,,,,,{8}7/2,5/4,7/2,7h[#1.530617]/2>7[1.5306##0.3827],
B6,B3,B5,B4,{32}2x,,,,,2,,2,{8}1,8h[8:1],
7h[8:1],6h[8:1],5h[8:1],3,5/4,5/4,6/3,6/3,
8h[2:1]/1h[2:1],,,,,7/3,6/2,5/1>3[8:1],
B4,C/1<7[8:1],B6,C/1>3[8:1],B4,C/1<7[8:1],B6,C/1>3[8:1],
B4,C/1<7[8:1],B6,C/1>3[8:1],B4,C/1<7[8:1],B6,1/C,
B4,C/8<6[8:1],B5,C/8>2[8:1],B3,C/8<6[8:1],B5,C/8>2[8:1],
B3,C/8<6[8:1],B5,C/8>2[8:1],B3,C/8<6[8:1],B5,8/C,
B3,C/4>2[8:1],B1,C/4<6[8:1],B7,C/4>2[8:1],B1,C/4<6[8:1],
B7,C/4>2[8:1],B1,C/4<6[8:1],B7,C/4>2[8:1],B1,C/4<6[8:1],
B7,4/C,B1,C/5>3[8:1],B8,C/5<7[8:1],B2,C/5-1[8:1],
B8,5/C,2,3/7,{2}7h[8:3]/3h[8:3],
{8}4,5/3h[8:1],5,4/6h[8:1],{32}3,,,3,{8}4,1/8,7/2,
8,1/7h[8:1],1,8/2h[8:1],{32}7,,,7,{8}8,5/4,2/7-4[8:1],
8,7/2-5[8:1],1,2/7,7h[4:1],3,2h[4:1],6,
5,4-8[32:3]/5-1[32:3],6/3,5/4,7<5[32:3]/2>4[32:3],8/1,{4}7/2,
{8}8,1/7h[8:1],1,8/2h[8:1],{32}7,,,7,{8}8,5/4,3/6,
4,5/3h[8:1],5,4/6h[8:1],{32}3,,,3,{8}4,1/8,6/3-8[8:1],
4,3/6-1[8:1],5,6/3,2h[4:1],6,7h[4:1],3,
{32}4,,,,,6b/3b,,,{8}5/4,7/3,{4}7h[4:1]/3h[8:1],{32}3,4,5,6,7,8,1,2,
{1}3/C,
E
