&title=宵闇花火
&artist=葉月ゆら
&first=0
&des=xxhb
&lv_5=12
&inote_5=(115)
{1},
{64}
,
{8}
6h[4:1]/8,,5>1[4:1],,5,1,8,7,6/4>8[8:1],,5pp1[4:1],,7h[4:1],,,,5/4-8[8:1],,,,4/5-1[8:1],,,,4>2[8:1],,5<7[8:1],,4qq2[8:1]*pp6[8:1],,4b,,
3h[4:1]/1,,4<8[4:1],,4,8,1,2,3/5<1[8:1],,4qq8[4:1],,2h[4:1],,,,4/5q1[8:1],,,,5/4p8[8:1],,,,17,1,62,6,
{24}
35,,,3,,,4,,4,8b,,,
82,,,13,,,5/4h[4:1],6,7,8,,,1h[4:1],,,5,4,3,2>5[8:1],,,1,,,2/7<4[8:1],,,8,,,
7/2pp6[4:1],,,1,,,2h[2:1],,,,,,,,,,,,
5<1[8:1],,,,,,3h[4:3],,,,,,4,,,6,,,8,,,2,,,5<8[16:1],,,2,,,3p7[16:1],,,6,,,5-1[16:1],,,4,,,35,,,,,,
17,,,68,,,4/5h[4:1],3,2,1,,,8h[4:1],,,4,5,6,7q4[4:1],,,,,,4q1[4:1],,,,,,
{16}1,,,,3,,3,8,1,6,4,5,
{24}
4>8[8:1],,,,,,6h[4:3],,,,,,5,,,4,,,3,,,2,,,1>4[16:1],,,6,,,7p3[16:1],,,2,,,1<6[16:1]*>4[16:1],,,8,,,
{4}1b,6,,6b,6b,
{24}
6b-2[16:1],,,,,1-5[16:1],
{16}1,,4,,4-8[16:1],,,,4,,2,,3h[8:3],,4,,5,,6qq4[16:1],,1qq7[16:1],,,,,,4,,
{24}
3b-7[16:1],,,,,8-4[16:1],
{16}8,,5,,5-1[16:1],,,,5,,7,,6h[8:3],,5,,4,,3qq1[16:1],,8qq6[16:1],,,,,,2,,
{24}
5h[4:1]/4,,,,,7,
{16}8-3[8:1],,1,,28,,,,4,,35,,7,,86,,3,,42,,8-4[16:1],,17,,,,1,,
{24}
3h[4:1]/6,,,,,2,
{16}1-6[8:1],,8,,17,,,,5,,64,,1/2h[16:3],,7,6h[16:3],,,7-3[16:1],,8-4[16:1],,7b,,8b,,5,,
6bpp1[2:1]/5,,4,,3,,2,2,1<5[8:1],,,,5,,,,3h[8:1]/4,,4,,2h[8:1]/1,,
{24}1,,,8,,8,7,,7,6,,6,5,,4,
{16}
3bqq8[2:1],,5,,6,,7,7,8>4[4:1],,,,4,,,,6h[8:1]/5h[8:1],,,,7h[8:1]/8h[8:1],,,,
1/2h[8:3],,3,,{24}5b,6,7,8,,,
{16}
1<5[4:1]/5,,4,,3,,2,2,3pp6[4:1],,,,3,,,,3h[4:1],,,,8h[4:1],,,,1h[16:3],,,6h[16:3],,,4h[8:1],,5<4[2:1],,4,,7,,{24}1b,,1b,,,,{8}5,6,7,{16}
8h[4:1],,,,1h[4:1],,,,2h[16:3],,,3h[16:3],,,4h[8:1],,
{24}
5b,,5,6,,6,7,,7,8,,8,1,,1,2,,2,3,,3,4,,4,
{2}
5h[2:1],
{16}
4w8[8:1],,,,4b,,,,
4/5b<8[8:1],,,,
{24}
8b/5,1,2,3h[8:1],,,{8}
4<7[16:1],2,1>4[16:1],7,8qq6[16:1],3,4>1[16:1],8,
7qq5[16:1],8,7b,,
3V17[8:1]/6v4[8:1],,36,,
2-6[16:1],5,4-8[16:1],3,1-5[16:1],7,6-2[16:1],
8>3[16:1],8v5[16:1],8b,8b,,
4b>1[8:1],,
{24}
1b/4,8,7,6h[8:1],,,{8}
5>2[16:1],7,8<5[16:1],2,1pp3[16:1],6,5<8[16:1],1,
2pp4[16:1],1,2b,6,
6h[8:1],{48}4b,3,2,,,,8b,7,6,,,,
2,,1,,2,,3h[8:1]/8,,,,,,7b,6,5,,,,3b,2,1,,,,
{16}
6,5,4h[16:3]/7,,,8h[16:3],,,1,,8>3[8:1]/7<4[8:1],,16,,8b/7b,,,,
1>4[8:1],,,,
{24}
1/6b,7,8,1h[8:1],,,{8}
4p8[16:1],7,6<1[16:1],2,3-7[16:1],6,5<7[16:1],4>2[16:1],5-1[8:1],4,5b,,
1V35[8:1]/5V71[8:1],,15,,
1>4[16:1],6,7-3[16:1],2,1-5[16:1],7,8<6[16:1],2>4[16:1],8p4[8:1],2,8b,,
8<5[8:1],,
{24}
8/3b,2,1,8h[8:1],,,{8}
5q1[16:1],2,3>8[16:1],7,6-2[16:1],3,4>2[16:1],5<7[16:1],4-8[8:1],5,4b,,
1b/5b,,3b/7b,,
{24}
4b,,4,5,,5,3,,3,7,,7,1,,1,8,,8,3,,3,5,,5,
4pp4[8:1]*qq4[8:1],,,8,,,4,,,,,,
1>4[8:1],,,,,,14,5,6,7h[8:1],,,
1,,7,8,,3,5,,6,4,,
2,5,,7,4,,1,5,,8,4,6,2,
8>4[8:1],,,6/4<8[8:1],,,8/2,,,,,,
3h[4:1],,,8,,,
6h[4:1],,,1,,,
1,,8,2,,2,7,,7,5,,5,3,,3,6,,6,2,,1,8,7,6,
5<1[8:1]/4qq2[8:1],,,6,,,45,,,,,,
8<5[16:1],,,,,,85,4,3,2h[8:1],,,
8,,2,1,,6,4,,3,5,,
7,4,,2,5,,8,{32}
4b,3,2,1,8,7,6,5,
{24}48,,,15,,,2b/6b,,,84,73,62,1b/5b<8[16:1],,,3,,,1<6[16:1],,,5,4,3,2b>5[16:1],,,8,,,6>3[16:1],,,
2,1,8,7b>2[16:1],,,1,,,3p7[16:1],,,6,,,5w1[8:1],,,6,,,5,,,,,,{1}
3b,,,,
