&title=Dynitikós
&artist=Prower
&first=0
&des=再闹就三根
&lv_5=14
&inote_5=(180)
{4},,,,
{8}1V74[8:11]/5,,,3V15[8:8],,,,,,,,,,,,,
{8}3qq5[8:11]/7,,,1V74[8:8],,,,,,,,,,,,,
{8}2/6V84[8:11],,,3qq5[8:8],,,,,,,,,,,,,
{8}4>5[8:12]/8,,,6<4[8:9],,,,,,,,,,,,,
{8}2h[8:5],,,8h[8:5],,,,,1h[8:3],7,6,5h[8:2],,,,,
{8}4h[8:5],,,1h[8:5],,,,,3h[8:3],8,7,6h[8:2],,1,3,7,
{8}5h[8:5],,,1h[8:5],,,,,3,1,8,6-3[8:1],,,,,
{8}8h[8:5],,,4h[8:2],,,,7-5-1-3[16:11]/6-8-4-2[16:11],,,,,,,,,
{8}8<5[8:1]/4>1[8:1],,,,{16}1/5h[8:1],,2-6[8:1],5,3,6,2b,,{8},8w4b[8:1],17,8b,,,,,
{8}1>4[8:1]/5<8[8:1],,,,{16}8/4h[8:1],,7-3[8:1],4,6,3,7b,,{8},1w5b[8:1],82,1b,,,,,
{8}7v8[8:1]/4v3[8:1],,,,{16}1/4h[8:1],,2-6[8:1],5,3,6,2b,,{8},8w4b[8:1],17,8bq5<7[8:2]*p3>1[8:2],,,,,
{8}8h[8:1]/2h[8:1],,,6-3[8:1]/5h[8:1],7,,,1bV36[8:5]/4bV27[8:5],,,,,,,,,
{4}Cf/5b<4[8:12],,,,,,,,Cf/5b-7>2-4[8:12],,,,,,,,
{4}Cf/5b<6-8>1-3<4[8:4],,,,Cf/5bq4[8:3],,,,5bv4[8:2]/Cf,,6bq3[8:2],,8bz4[8:4],,,,
{8}2b/5b,5,5,5,5/8,8,8,8,8/3,3,3-1[8:1],3-6[8:1],,,,,
{8}3b/8b,3,3,3,3/6,6,6,6,6/1,1,1v3-5[8:3],1V74[8:2],,,,,
{8}6b/1b,1,1,1,1/4,4,4,4,4/7,7,7>2[16:3],7-5[8:1],,,,,
{8}4b/7b,8,8,8,25,1,1,1,{24}5,6,7,8,1,2,3,4,5,6,7,8,2,3,4,5,6,7,8,1,2,3,4,5,
{8}6b-2[8:13]/8,,8h[8:1],,8h[8:1],,8h[8:1],,8,{16}8,8,8,,8,,{8}8,8,Cf,,
{8}5b/3b,2,2,2,53,8,8,8,53,6,6V41[8:2],6v3[8:1],,,,,
{8}6b/4b,3,3,3,64,1,1,1,64,7,7-5[8:1],7V13[8:2],,,,,
{8}7b/5b,4,4,4,75,2,2,2,{8}7/2,4h[8:1],8,{16}2,6,4h[8:1],,8,,3,7,2,6,
{8}1b-4[8:1],,4,5-7[8:1],,,3,4-8[8:1],,,2,3-1[8:1],,{16}1-4[8:1],8,7,,,,
{8}5-8[8:1],,8,1-3[8:1],,,7,{16}6,2,{8}8-3[8:1],4-1[8:1],,,,{16}5,1,2-7[8:1]/6,,,,
{8}5b-1[8:1],,1,2-4[8:1],,6,8,1-5[8:1],,6,7,8-6[8:1],,{16}5-8[8:1],4,3,,,,
{16}2,,2,3,4,,5/7-4[8:1],,{8},4,2,8-3[8:1],4-8[8:1],,,,7/5h[8:1],6,3/4h[8:1],2,
{8}1b>8[8:9]/Ch[8:11],,,,,,,,,,,,,{16}1-5[8:1],8,1,,,,
{8}6-8[8:1],54,,5-1[8:1],64,,4-2[8:1],37,,8-4[8:1],17,,{16}1h[8:1],,5h[8:1],,{32}2x,3x,4x,5x,6x,7x,8x,1x,
{8}7-5[8:1],81,,8-4[8:1],71,,1-3[8:1],26,,5-1[8:1],46,,{16}4h[8:1],,8h[8:1],,{32}3x,2x,1x,8x,7x,6x,5x,4x,
{8}38,{16}6,5,4,,16,,3,4,5,,{8}7-5-8-4-1-3[8:7],64,3h[8:1],,2h[8:1],,1h[8:1],,8^7^6^5^4^3^2^1[8:56],,
{4},,E1,,B7,,B3,,E5,,,,,,,,,,E1,,B2,,B6,,E5,,,,,7xs3[8:2],,,
{4}4/5h[2:1],,1h[2:1],,7h[2:1],,6h[2:1],,4-6-8-2[8:12],,,,2V46[8:4],,,,
{4}5/4h[4:2],5,8,8h[4:2],2,2h[4:2],3,3h[4:1],{8}5,4,35,6,75,3,24,1,{32}5,6,7,8,1,2,3,4,E6,E7,E8,E1,E2,E3,E4,E5,{8}Ch[8:4],,,,
{8}8bx,,,,{16}2,7,3-6[8:1],6,4,5,3,,{8}8,8,8-6-4>3[8:2]/5,8,8/3-1<5[8:2],2h[8:2],,,
{24}4xh[8:1],,,E3/E4/7h[8:2],E2,E1,E8,E7,E6,E5,E4,E3,{8}6bx/2bx,,{16}18,,,78,,,12,,,76,,,23,,,56,,,3/4q1[8:2],,
{8}5p8[8:1],,,,{16}2b/7b,,8-4[8:1],1,7,2,8,,{8}3,1,1>4[8:1],1,15,7,7<4[8:1],7,
{24}7/4,3,2,1,8,7,6,5,4,3,2,,8b<5[8:1],,,7b/3b,,,48,3,2,1,8,7,6,5,,{8}8b,{12}2,2,2,
{8}15,,{12}6xh[48:1],5xh[48:1],4xh[48:1],
{8}3b,,,,{16}7,2,6-3[8:1],3,5,4,6,,{8}1,1,1-3-5<6[8:2]/4,1,1/6-8>4[8:2],7V13[8:1],,,
{24}5xh[8:1],,,D7/A6/2h[8:2],D8,D1,D2,D3,D4,D5,D6,D7,{8}3bx/7bx,,{16}81,,,31,,,86,,,14,,,85,,,24,,,7/5s1[8:2],,
{8}4z8[8:1],,,,{16}7b/2b,,1-5[8:1],8,2,7,1,,{8}6,8,8<5[8:1],8,84,2,2>5[8:1],2,
{24}2/5,6,7,8,1,2,3,4,5,6,7,,1b>4[8:1],,,2b/6b,,,51,6,7,8,1,2,{48}3x,,,,,5x,,,,,7x,,,,,,8x,,,,,,1x,,,,,,2x,,,,,,,3x,,,,,,,,4x,,,,,
{8}5V38[8:11]/6,,,7V51[8:8],,,,,,,,,,,,,
{8}7qq1[8:11]/3,,,5V38[8:8],,,,,,,,,,,,,
{8}6/2V48[8:11],,,7qq1[8:8],,,,,,,,,,,,,
{8}8<1[8:12]/4,,,2>8[8:9],,,,,,,,,,,,,
{8}3pp6[8:12],,,8h[8:2],,,,,7,8,1,2h[8:2],,,,,
{8}7pp2[8:12],,,4h[8:2],,,,,6,5,4,3h[8:2],,,,,
{8}4pp7[8:12],,,8pp3[8:9],,,,,,,,,,,,,
{8}5qq2[8:10],,,1qq6[8:7],,,,,,,,,,,,,
