&title=[CRYSTAL_ACCESS]
&artist=Blacklolita
&first=0
&des=[ACCESS_DENIED]
&clock_count=4
&lv_5=14+
&lv_6=14+
&inote_5=
&inote_6=(160){8},,,,,,,,,6,5,4,,3,,3h[4:3],,,,4,5,6,,,,6,5,4,,3,,4h[4:3],,,,,6,5,,
,,6,5,4,,3,,3h[8:5],,,,4,5,6,,,,6,5,4h[8:4],,,,
{16}6,5s1[8:3],6h[8:3],,,,,,,,,,,,1,5,1,5,
{32}1V37[16:3],2,3,4,5,6,7,8,
{16}1,,5h[8:3],,,,,,1-5[8:1],,
{32}5,6,7,8,1/2,,
{16},3s7[8:2],,,,3,,5b,,,,,,,,
{32}1/8V62[16:3],7,6,5,4,3,2,1,
{16}8,,4h[4:1],,,,,,8-4[8:1],,
{32}4,3,2,1,8/7,,
{16},6z2[8:2],,,,6,,3b,,,,,,,,
{32}8/1V37[16:3],2,3,4,5,6,7,8,
{16}1,,5h[4:1],,,,,,1-5[8:1],,
{32}5,6,7,8,1/2,,
{16},2s6[8:2],,,,2,,5b,,,,,,,,3b/6b<1[8:1],,5,,4,,2bv5[8:1],,,,2,,8bqq1[8:3]*<1[8:3],,,,,,,,,
,,,8z4[16:4],,,,,,,,2,,2h[16:12],,
{16},3,,,4,,,5,,,7h[16:16],,,,6,,,5,,,4,,,3,,,1h[16:4],,,,4,,4,3,,5,4,,6,5,,7,6h[4:1],,,,8,,8,6,,7,5,,6,4,,5,3,,4bpp8[4:2]/2b,,
{8}2,2,2,3h,3,3,3,5bqq1[4:2]/7h,7,7,7,6h,6,6,6,
{16}3,4,3,5,4,5,2,4,2,6,4,6,1V74[16:3],4,1,4V26[16:3],1,,,,,,,,7,8,6,6,1-5[8:1],8,2,2,1bV36[16:3],,,,,,7b,,8bV61[16:3],,,1bV72[16:3],,,2<5[16:3],,3,,,,3h[16:1],,3h[16:1],,4,2,5,3,6,4,7,5,
{32}8,1,2,3,4,5,6,7,8V62[16:3]/4,,,,4,3,2,1,8,,
{16},,1,,,18,,3,4,3,6,5,6,3,4,2,7,5,6,3,4,1,7,5bw1[8:1],,,,,,,,5bV74[16:3],,,4bV63[16:3],,,3<8[16:3],,2,,,,2h[16:1],,2h[16:1],,1,3,8,2,7,1,6,8,
{8}5b-1[8:1],4,2b/5b,3,2b/8b,
{16}3,4,3,,25,,
{8}1b-5[8:1]/8b,
{16}2,8,1,,6,,7bv4[8:1],,8>3[8:1],,7,,8,,
{16}
5bV72[16:3],,,,,,3b,,4bV25[16:3],,,5bV36[16:3],,,6>1[16:3],,7,,,,7h[16:1],,7h[16:1],,8h,6,1,7h,2,8,3h,1,
{32}4,5,6,7,8,1,2,3,4V26[16:3]/8,,,,8,7,6,5,4,,
{16},,5,,,54,,7,8,7,2,1,2,7,8,6,3,1,2,7,8,5,3,1bw5[8:1],,,,,,,,1bV38[16:3],,,8bV27[16:3],,,7>4[16:3],,6,,,,6h[16:1],,6h[16:1],,5,7,4,6,3,5,2,4,
{8}1b-5[8:1],8,6b/1b,7,6b/4b,
{16}7,8,7,,61,,
{8}5b-1[8:1]/4b,
{16}6,4,5,,2,,3bv8[8:1],,4<7[8:1],,3,,4,,
{16}2b-4[16:1],,,
{32}5b-1[16:1],6,7,,
{16},1b-3[16:1],,,
{32}8b,7,6,,
{16},4,,28,,
{16}7b-5[16:1]/1,,,
{32}4b-8[16:1]/7b,3,2,,
{16},8b-6[16:1],,,
{32}1b,2,3,,
{16},5h[16:1],,5h[16:1],,3,4,3,1,2,8,4,5,4,8,1,7,5,6,5,6,8,7,8,5,4,6,1,8,2b/7b,,,1b-5[16:1]/5b,,,8b,,
{16}7b-5[16:1],,,
{32}4b-8[16:1],3,2,,
{16},8b-6[16:1],,,
{32}1b,2,3,,
{16},5,,71,,
{16}2b-4[16:1]/8,,,
{32}5b-1[16:1]/2b,6,7,,
{16},1b-3[16:1],,,
{32}8b,7,6,,
{16},
{8}4h[16:1],4h[16:1],
{8}4b-8[8:1],5,7b/4b,6,7b/1b,
{16}6,5,6,,74,,
{8}8b-4[8:1]/1b,
{16}7,1,8,,3,,2bv5[8:1],,1<6[8:1],,2,,1,,
{16}
4bV27[16:3],,,,,,6b,,5bV74[16:3],,,4bV63[16:3],,,3<8[16:3],,2,,,,2h[16:1],,2h[16:1],,1h,3,8,2h,7,1,6h,8,5,4,5,1,8,2,4,3,4,3,1,2,1,4,5,3,8,1,8,5,6,4,7,8,1b/6b,,,8b-4[16:1]/4b,,,1b,,2bw6[8:1],,,,,,,,1bV38[16:3],,,8bV27[16:3],,,7>4[16:3],,6,,,,6h[16:1],,6h[16:1],,5,7,4,6,3,5,2,4,
{8}1b-5[8:1],8,6b/1b,7,6b/4b,
{16}7,8,7,,61,,
{8}5b-1[8:1]/4b,
{16}6,4,5,,2,,3bv8[8:1],,4<7[8:1],,3,,4,,1h[1:2],,,,,,,,,,,,,,,,,,,,,,,,,,,,,,,,
{8}6,5,4,3h[8:5],,,,,5,4,3,2h[8:4],,,,,6,5,4,3h[8:4],,,,,5,4,3,2,
{16}1h[16:3],,,8h[16:3],,,7pp2[8:12],,,,,,,,,,,,,,,,,,6,,5,,4,,3,,,,,,,,,,
{8}8h[8:12]/1,,2,2,,3,3,,4,4,,5,5-2[8:1],,8,,1h[8:12]/8,,7,7,,6,6,,5,5,,4,4-8[8:1],,1,,
{8}1bqq5[4:2]/3b,
{8}3,3,3,2h,2,2,
{16}1,6,8bpp4[4:2],,
{8}6,6,6,7h,7,7,
{16}8,3,1h[16:3],,2,2h[16:3],,4,4h[16:3],,6,6h[16:3],,8-4[16:2],8,,2z6[32:7]/7s3[32:7],,,,,,,,,,4,8,2,6,15,26,37,4V27[16:3]/8V63[16:3],1b/5b[16:3],,,4b/8b,,,,,4b/8b,15,26,37,4bV25[16:3]/8b,,,,4b/5-1[16:2],,6b-8[8:1],,,,6,,2b-5[16:2],,3,1,2,,7-4[8:1],,4bV61[16:3],,,1V73[16:3],,,2,,2h[8:2],,,,4h[8:1],,
{32}1,8,7,6,5,4,3,2,1,8,7,6,5,4,3,2,
{16}7,7,8,6,4,5,2-8[8:1],4,3,4,2b,,6,6,5-1[8:1],,47,,6h[16:1]/5,,6h[16:1],,7b/1b>6[32:5],,,,18,,7,7,8,,2,2,1b,3,8,1,6-4[8:1],8,7,8,6b,,2,2,1<3[16:3],,38,,12,,,,
{32}1b,8,7,6,5,4,3,2,8,7,6,5,4,3,2,1,7,6,5,4,3,2,1,8,
{16}6,6,5,7,4w8[16:3],4,5,3,,,,,,,
{16}26,,2-4[16:1]/6,,,5-2[8:1],,,8,,7-5[16:1],,,4V61[16:3],,,1V73[16:3],2,3,,,,,,4,,5bV38[16:3]/7b,,,8V26[16:3],,,7,,7h[8:2],,,,5h[8:1],,
{32}8,1,2,3,4,5,6,7,8,1,2,3,4,5,6,7,
{16}2,2,1,3,5,4,7-1[8:1],5,6,5,7b,,3,3,4-8[8:1],,52,,3h[16:1]/4,,3h[16:1],,2b/8b<3[32:5],,,,81,,2,2,1,,7,7,8b,6,1,8,3b<6[8:1],1,2,1,3b>3[8:7],,,,,,7,,7,,,,8h[16:12],,,,,,,,,,,,1b,,,,,,,,
{32}2V48[16:3],3,4,5,6,7,8,1,
{16}2,,5h[8:3],,,,,,1-5[8:1],,
{32}5,6,7,8,1/2,,
{16},4s8[8:2],,,,4,,6b,,5,,4,,3,,
{32}7V51[16:3]/2,6,5,4,3,2,1,8,
{16}7,,4h[8:3],,,,,,8-4[8:1],,
{32}4,3,2,1,8/7,,
{16},5z1[8:2],,,,5,,3b,,4,,5,,6,,
{32}3V51[16:3]/7,4,5,6,7,8,1,2,
{16}3,,6h[8:3],,,,,,2-6[8:1],,
{32}6,7,8,1,2/3,,
{16},5s1[8:2],,,,5,,7b,,,,,,,,
6b/3b>8[8:1],,4,,5,,7bv4[8:1],,,,7,,1bpp8[8:3]*>8[8:3],,,,,,,,,
,,,1s5[16:4],,,,,,,,
