&title=Shadow gate to love
&artist=Guilty Kiss
&first=0
&des=REP
&lv_5=13
&inote_5=(105){4},{16},,,,,,,,,,,,,4h[32:1]/8h[32:1],
,4h[32:1]/8h[32:1],,3h[32:1]/7h[32:1],,,,5h[32:1]/1h[32:1],,5h[32:1]/1h[32:1],,6h[32:1]/2h[32:1],,,{1}8<5[8:9]/3-8[8:9],
{16},,,,,,,,,,2,4,{8}5/1-6[8:1],{16}6,7,
{1}1/8-4[2:1],
{8}5-8>1[4:1]/1-4<5[4:1],,,,,4-1[8:1],{16}6,5,{8}4,
7h[16:1],{16}8,6h[32:1]/2h[32:1],,5h[32:1]/3h[32:1],,4-8[8:1],,,,,,,,,{8}6h[16:1],
{16}5,7h[32:1]/3h[32:1],,8h[32:1]/2h[32:1],,1-5[8:1],,,,,,,,,{8}3h[16:1],
{16}4,2h[32:1]/6h[32:1],,1h[32:1]/7h[32:1],,8-4[8:1],,,,,,,,,{8}2h[16:1],
{16}1,3h[32:1]/7h[32:1],,4h[32:1]/6h[32:1],,5-1[8:1],,,,,,,,,3/7h[16:3],
,,4,,5,,6h[16:5]/7<4[8:1],,,,,,,{8}6,
{16}6/2h[16:3],,,5,,4,,3h[16:5]/2>5[8:1],,,,,,,{8}3,
{16}2/6h[16:3],,,1,,8,,7h[16:5]/6<1[8:1],,,,,,,{8}7,
{16}7/3h[16:3],,,8,,1,,2h[16:5]/3>8[8:1],,,,,,,{8}2,
{16}4/8h[16:3],,,5,,6,,7h[16:5]/8<5[8:1],,,,,,,{8}7,
{16}7/3h[16:3],,,6,,5,,4h[16:5]/3<6[8:1],,,,,,,{8}4,
{16}3/7h[16:3],,,2,,1,,8h[16:5]/7>2[8:1],,,,,,,{8}8,
{16}8/4h[16:3],,,1,,2,,3h[16:5]/4>1[8:1],,,,,,,{8}3,
{16}6h[16:1]/4-8[16:3],,,4/8>3[16:3],,,{8}7h[8:1],,,4/5h[8:1],4,
{16}2h[16:1]/8-4[16:3],,,8/4<7[16:3],,,{8}3h[8:1],,,1/8h[8:1],1,
{16}4/2-7[16:3],,,2/7-4[16:3],,,{8}5h[8:1],,,{4}3/2,
{16}8/6-3[16:3],,,6/3-8[16:3],,,{8}1h[8:1],,,{4}6/7,
{8}3>8[8:1],{16}5,3h[8:1],,,{8}3,7<4[8:1],{16}1,7h[8:1],,,{8}7,
2h[16:1],3/7h[16:1],6h[8:1],2,{4}8-5[8:1]/2-5[8:1],8/2,
{16}5/4h[16:3],6,,7,,1/8h[16:3],{8}2,{4}3,7/5,
{6}2h[32:1]/6h[32:1],5h[32:1]/1h[32:1],{24},{8}8h[32:1]/4-8[16:5],{16},,,,,,,,,,7,
5,,8<5[8:1],,5-1[8:1],,1-6[8:1],,2,,3h[16:3],,,{8}4,
{16}2,4,,1>4[8:1],,4-8[8:1],,8-3[8:1],,7,,6h[16:3],,,{8}5,
{16}1,7,,2-7[8:1],,7>2[8:1],,2>5[8:1],,5,,6,,,{8}6/7h[16:1],
5,2h[16:1]/1-5[8:1],8h[8:1],1>4[8:1],6-2[8:1],1,6,
{16},,3,1,,4-1[8:1],,1-5[8:1],,5-2[8:1],,6,,7h[16:3],,,,,6,
8,,5-8[8:1],,8-4[8:1],,4-7[8:1],,3,,2h[16:3],,,,,5,
3,,6-3[8:1],,3<6[8:1],,6<1[8:1],,1,,2,,,{8}2/3h[16:1],
1,6h[16:1]/5-1[8:1],4h[8:1],5<8[8:1],2-6[8:1],5,2,
1h[16:1],{16}8,2h[32:1]/6h[32:1],,3h[32:1]/5h[32:1],,4-8[8:1],,,,,,,,,{8}2h[16:1],
{16}3,1h[32:1]/5h[32:1],,8h[32:1]/6h[32:1],,7-3[8:1],,,{8}8,7,6,
5h[16:1],{16}4,6h[32:1]/2h[32:1],,7h[32:1]/1h[32:1],,8-4[8:1],,,,,,,,,{8}6h[16:1],
{16}7,5h[32:1]/1h[32:1],,4h[32:1]/2h[32:1],,3-7[8:1],,,{8}2,3,4,
8h[16:1],{16}1,7h[32:1]/3h[32:1],,6h[32:1]/4h[32:1],,4>1[8:1],,5,7-3[32:3],4,{8}6,7,
1h[16:1],{16}8,2h[32:1]/6h[32:1],,3h[32:1]/5h[32:1],,5<8[8:1],,4,2-6[32:3],5,{8}3,2,
{16}3,4,5,6,3,4,5,6,3,4,5,6,3,4,5,6,
3,4,5,6,3,4,5,6,3,4,5,6,3,4,5,6,
{1}7/3-7[8:5],
8-5[2:3]/5-2[2:3],
,1<6[1:1]/5>2[2:1],
E
